[更早] [其他] [爱情] [BD-1080P] 黑魔王 Legend.1985.U.S.THEATRICAL.1080p.BluRay.x264-CiNEPHiLiA 13.79GB

uump4 1月前 1134

帖子完整标题:黑魔王 Legend.1985.U.S.THEATRICAL.1080p.BluRay.x264-CiNEPHiLiA 13.79GB

悠悠MP4_MP4电影下载_黑魔王 Legend.1985.U.S.THEATRICAL.1080p.BluRay.x264-CiNEPHiLiA 13.79GB

◎译  名 黑魔王/Legend of Darkness/传奇/传说/诡秘怪谈/魔法传奇
◎片  名 Legend
◎年  代 1985
◎产  地 美国,英国
◎类  别 爱情 / 奇幻 / 冒险
◎语  言 英语,意大利语
◎上映日期 1985-12-13(英国) / 1986-04-18(美国)
◎豆瓣评分 6.3/10 from 1492 users
◎豆瓣链接 https://movie.douban.com/subject/1301416/
◎片  长 94分钟
◎导  演 雷德利·斯科特 Ridley Scott
◎编  剧 威廉·乔兹伯格 William Hjortsberg
◎主  演 汤姆·克鲁斯 Tom Cruise
       米娅·萨拉 Mia Sara
       蒂姆·克里 Tim Curry
       大卫·本奈特 David Bennent
       罗伯特·皮卡多 Robert Picardo
       艾丽斯·普莱坦 Alice Playten
       比利·巴蒂 Billy Barty
       科克·哈伯特 Cork Hubbert
       基兰·沙阿 Kiran Shah
       安娜贝勒·拉尼翁 Annabelle Lanyon
       阿诺恩·米尔坎 Arnon Milchan
       埃迪·鲍威尔 Eddie Powell

◎标  签 魔幻 | 奇幻 | 美国 | 汤姆·克鲁斯 | TomCruise | 1985 | 美国电影 | 爱情

◎简  介

  独角兽掌管着世界的光明,为了让黑暗重新笼罩,魔王(蒂姆·克里 Tim Curry 饰)一直都在进行着独角兽的猎杀行动。莉莉(米娅·萨拉 Mia Sara 饰)是懵懂而又天真的公主,一次偶然中,她闯入了一片森林里,在那里,莉莉邂逅了身份神秘的杰克(汤姆·克鲁斯 Tom Cruise 饰),很快,两颗孤独的心渐渐贴在了一起。
  
  在杰克的带领之下,莉莉见到了世界上最后两只独角兽,杰克告诫莉莉只可以用眼睛看,千万不可以触碰独角兽,可是,莉莉没能经受的起独角兽魅力的诱惑,最终还是伸手触碰。这让魔王得到了机会,他杀死了其中的一头独角兽,并且掠走了莉莉和剩下的另一头独角兽,为了拯救世界,杰克向森林里的精灵寻求帮助。

◎获奖情况

  第59届奥斯卡金像奖 ?(1987)
  最佳化妆(提名) 罗伯·博汀?/?彼得·罗勃-金
  
  第42届威尼斯电影节 ?(1985)
  主竞赛单元金狮奖(提名) 雷德利·斯科特

Video
ID                                       : 1
Format                                   : AVC
Format/Info                              : Advanced Video Codec
Format profile                           : [email protected]
Format settings                          : CABAC / 5 Ref Frames
Format settings, CABAC                   : Yes
Format settings, Reference frames        : 5 frames
Codec ID                                 : V_MPEG4/ISO/AVC
Duration                                 : 1 h 29 min
Bit rate                                 : 19.4 Mb/s
Width                                    : 1 920 pixels
Height                                   : 818 pixels
Display aspect ratio                     : 2.35:1
Frame rate mode                          : Constant
Frame rate                               : 23.976 (24000/1001/189150) FPS
Color space                              : YUV
Chroma subsampling                       : 4:2:0
Bit depth                                : 8 bits
Scan type                                : Progressive
Bits/(Pixel*Frame)                       : 0.516
Stream size                              : 12.1 GiB (88%)
Writing library                          : x264 core 164 r3075 66a5bc1
Encoding settings                        : cabac=1 / ref=5 / deblock=1:-3:-3 / analyse=0x3:0x133 / me=umh / subme=9 / psy=1 / psy_rd=1.00:0.00 / mixed_ref=1 / me_range=24 / chroma_me=1 / trellis=2 / 8x8dct=1 / cqm=0 / deadzone=21,11 / fast_pskip=0 / chroma_qp_offset=-2 / threads=24 / lookahead_threads=2 / sliced_threads=0 / nr=0 / decimate=0 / interlaced=0 / bluray_compat=0 / constrained_intra=0 / bframes=3 / b_pyramid=2 / b_adapt=2 / b_bias=0 / direct=3 / weightb=1 / open_gop=0 / weightp=2 / keyint=250 / keyint_min=23 / scenecut=40 / intra_refresh=0 / rc_lookahead=60 / rc=crf / mbtree=0 / crf=20.0 / qcomp=0.60 / qpmin=0 / qpmax=69 / qpstep=4 / vbv_maxrate=62500 / vbv_bufsize=78125 / crf_max=0.0 / nal_hrd=none / filler=0 / ip_ratio=1.40 / pb_ratio=1.30 / aq=3:0.60
Default                                  : Yes
Forced                                   : No

Audio #1
ID                                       : 2
Format                                   : DTS XLL
Format/Info                              : Digital Theater Systems
Commercial name                          : DTS-HD Master Audio
Codec ID                                 : A_DTS
Duration                                 : 1 h 29 min
Bit rate mode                            : Variable
Bit rate                                 : 2 519 kb/s
Channel(s)                               : 6 channels
Channel layout                           : C L R Ls Rs LFE
Sampling rate                            : 48.0 kHz
Frame rate                               : 93.750 FPS (512 SPF)
Bit depth                                : 24 bits
Compression mode                         : Lossless
Stream size                              : 1.58 GiB (11%)
Language                                 : English
Default                                  : Yes
Forced                                   : No

Audio #2
ID                                       : 3
Format                                   : AAC LC
Format/Info                              : Advanced Audio Codec Low Complexity
Codec ID                                 : A_AAC-2
Duration                                 : 1 h 29 min
Bit rate                                 : 96.0 kb/s
Channel(s)                               : 2 channels
Channel layout                           : L R
Sampling rate                            : 48.0 kHz
Frame rate                               : 46.875 FPS (1024 SPF)
Compression mode                         : Lossy
Stream size                              : 62.6 MiB (0%)
Title                                    : Commentary by Paul M. Sammon
Language                                 : English
Default                                  : No
Forced                                   : No

Text #1
ID                                       : 4
Format                                   : PGS
Muxing mode                              : zlib
Codec ID                                 : S_HDMV/PGS
Codec ID/Info                            : Picture based subtitle format used on BDs/HD-DVDs
Duration                                 : 1 h 27 min
Bit rate                                 : 21.0 kb/s
Count of elements                        : 1592
Stream size                              : 13.2 MiB (0%)
Language                                 : English
Default                                  : No
Forced                                   : No

Text #2
ID                                       : 5
Format                                   : UTF-8
Codec ID                                 : S_TEXT/UTF8
Codec ID/Info                            : UTF-8 Plain Text
Duration                                 : 1 h 25 min
Bit rate                                 : 27 b/s
Count of elements                        : 620
Stream size                              : 17.1 KiB (0%)
Language                                 : English
Default                                  : No
Forced                                   : No

Text #3
ID                                       : 6
Format                                   : UTF-8
Codec ID                                 : S_TEXT/UTF8
Codec ID/Info                            : UTF-8 Plain Text
Duration                                 : 1 h 27 min
Bit rate                                 : 30 b/s
Count of elements                        : 796
Stream size                              : 19.9 KiB (0%)
Title                                    : SDH
Language                                 : English
Default                                  : No
Forced                                   : No

Menu
00:00:00.000                             : :Chapter 01
00:06:25.510                             : :Chapter 02
00:13:43.531                             : :Chapter 03
00:24:37.309                             : :Chapter 04
00:33:21.958                             : :Chapter 05
00:38:55.917                             : :Chapter 06
00:45:17.673                             : :Chapter 07
00:55:35.290                             : :Chapter 08
01:02:25.533                             : :Chapter 09
01:09:24.702                             : :Chapter 10
01:13:15.850                             : :Chapter 11
01:21:17.122                             : :Chapter 12


悠悠MP4_MP4电影下载_黑魔王 Legend.1985.U.S.THEATRICAL.1080p.BluRay.x264-CiNEPHiLiA 13.79GB


上传的附件:
最新回复 (0)
返回
本站所有资源均收集自互联网,没有提供影片资源存储, 也未参与录制、上传,若本站收录的资源无意侵犯了您的权益, 请联系邮箱:gogoimgs#gmail.com(#[email protected])