[2015] [欧美] [剧情] [WEB-1080P] 杀人草泥马 Llamageddon.2015.1080p.AMZN.WEBRip.DDP2.0.x264-ETHiCS 3.96GB

uump4 1月前 1483

帖子完整标题:杀人草泥马 Llamageddon.2015.1080p.AMZN.WEBRip.DDP2.0.x264-ETHiCS 3.96GB

悠悠MP4_MP4电影下载_杀人草泥马 Llamageddon.2015.1080p.AMZN.WEBRip.DDP2.0.x264-ETHiCS 3.96GB

◎译  名 杀人草泥马
◎片  名 Llamageddon
◎年  代 2015
◎产  地 美国
◎类  别 剧情 / 喜剧 / 惊悚
◎语  言 英语
◎上映日期 2015-08-20(美国)
◎豆瓣评分 /10 from 0 users
◎豆瓣链接 https://movie.douban.com/subject/30402746/

◎标  签 电影 | 喜剧 | 美国 | 惊悚 | cult

◎简  介

  A killer llama from outer space crash lands on Earth and brings death and destruction to everyone in its path.

Video
ID                                       : 1
Format                                   : AVC
Format/Info                              : Advanced Video Codec
Format profile                           : [email protected]
Format settings                          : CABAC / 4 Ref Frames
Format settings, CABAC                   : Yes
Format settings, Reference frames        : 4 frames
Codec ID                                 : V_MPEG4/ISO/AVC
Duration                                 : 1 h 9 min
Bit rate mode                            : Constant
Bit rate                                 : 7 986 kb/s
Nominal bit rate                         : 10 000 kb/s
Width                                    : 1 920 pixels
Height                                   : 1 080 pixels
Display aspect ratio                     : 16:9
Frame rate mode                          : Constant
Frame rate                               : 23.976 (24000/1001/189150) FPS
Color space                              : YUV
Chroma subsampling                       : 4:2:0
Bit depth                                : 8 bits
Scan type                                : Progressive
Bits/(Pixel*Frame)                       : 0.161
Stream size                              : 3.85 GiB (97%)
Default                                  : Yes
Forced                                   : No
Color range                              : Limited
Color primaries                          : BT.709
Transfer characteristics                 : BT.709
Matrix coefficients                      : BT.709

Audio
ID                                       : 2
Format                                   : E-AC-3
Format/Info                              : Enhanced AC-3
Commercial name                          : Dolby Digital Plus
Codec ID                                 : A_EAC3
Duration                                 : 1 h 9 min
Bit rate mode                            : Constant
Bit rate                                 : 224 kb/s
Channel(s)                               : 2 channels
Channel layout                           : L R
Sampling rate                            : 48.0 kHz
Frame rate                               : 31.250 FPS (1536 SPF)
Compression mode                         : Lossy
Stream size                              : 111 MiB (3%)
Title                                    : English
Language                                 : English
Service kind                             : Complete Main
Default                                  : No
Forced                                   : No

Text
ID                                       : 3
Format                                   : UTF-8
Codec ID                                 : S_TEXT/UTF8
Codec ID/Info                            : UTF-8 Plain Text
Duration                                 : 1 h 8 min
Bit rate                                 : 52 b/s
Count of elements                        : 1069
Stream size                              : 26.3 KiB (0%)
Title                                    : English [CC][SDH]
Language                                 : English
Default                                  : No
Forced                                   : No

Menu
00:00:00.000                             : en:Title Sequence
00:01:31.000                             : en:Scene 2
00:02:19.000                             : en:Title Sequence
00:02:26.000                             : en:Scene 4
00:04:28.000                             : en:Scene 5
00:11:50.000                             : en:Scene 6
00:19:05.000                             : en:Scene 7
00:26:32.000                             : en:Scene 8
00:32:24.000                             : en:Scene 9
00:36:57.000                             : en:Scene 10
00:45:32.000                             : en:Scene 11
00:51:03.000                             : en:Scene 12
00:58:14.000                             : en:Scene 13
01:02:15.000                             : en:Scene 14
01:04:48.000                             : en:Title Sequence
01:05:10.000                             : en:End Credits


悠悠MP4_MP4电影下载_杀人草泥马 Llamageddon.2015.1080p.AMZN.WEBRip.DDP2.0.x264-ETHiCS 3.96GB悠悠MP4_MP4电影下载_杀人草泥马 Llamageddon.2015.1080p.AMZN.WEBRip.DDP2.0.x264-ETHiCS 3.96GB悠悠MP4_MP4电影下载_杀人草泥马 Llamageddon.2015.1080p.AMZN.WEBRip.DDP2.0.x264-ETHiCS 3.96GB


上传的附件:
最新回复 (0)
返回
本站所有资源均收集自互联网,没有提供影片资源存储, 也未参与录制、上传,若本站收录的资源无意侵犯了您的权益, 请联系邮箱:gogoimgs#gmail.com(#[email protected])