[更早] [欧美] [喜剧] [WEB-1080P] 康州圣诞/康涅狄格圣诞 Christmas.in.Connecticut.1992.1080p.AMZN.WEBRip.DDP2.0.x264-PLiSSKEN

uump4 1月前 339

帖子完整标题:康州圣诞/康涅狄格圣诞 Christmas.in.Connecticut.1992.1080p.AMZN.WEBRip.DDP2.0.x264-PLiSSKEN 6.62GB

悠悠MP4_MP4电影下载_康州圣诞/康涅狄格圣诞 Christmas.in.Connecticut.1992.1080p.AMZN.WEBRip.DDP2.0.x264-PLiSSKEN

◎译  名 康州圣诞/康涅狄格圣诞
◎片  名 Christmas in Connecticut
◎年  代 1992
◎产  地 美国
◎类  别 喜剧
◎语  言 英语
◎上映日期 1992-04-13
◎豆瓣评分 /10 from 0 users
◎豆瓣链接 https://movie.douban.com/subject/1302796/
◎片  长 93分钟
◎导  演 阿诺·施瓦辛格 Arnold Schwarzenegger
◎编  剧 黛恩·坎农 Dyan Cannon / 克里斯·克里斯托佛森 Kris Kristofferson / 托尼·柯蒂斯 Tony Curtis / 理查德·朗德特里 Richard Roundtree / 莱昂内尔·豪泽 Lionel Houser / 阿代莱·科曼迪尼 Adele Comandini
◎主  演 黛恩·坎农 Dyan Cannon
       克里斯·克里斯托佛森 Kris Kristofferson
       托尼·柯蒂斯 Tony Curtis
       理查德·朗德特里 Richard Roundtree
       阿诺·施瓦辛格 Arnold Schwarzenegger
       Peter Kent Peter Kent
       Jenee Bandler Jenee Bandler
       戴维阿诺特 David Arnott
       Jimmy Workman Jimmy Workman
       George Putnam George Putnam
       Vivian Bonnell Vivian Bonnell
       罗伯特·麦克雷 Robert Machray
       David E. Harshbarger David E. Harshbarger
       Bob Braun Bob Braun
       Robert Noble Robert Noble

◎标  签 美国 | 美国电影 | 圣诞 | 喜剧 | 施瓦辛格导演 | 童年回忆 | 爱情 | 施瓦辛格

◎简  介

  伊丽莎白(芭芭拉?斯坦威克 Barbara Stanwyck 饰)是美国最著名的食品专栏作家之一,她的美食专栏向来都是叫好又叫座。在她的专栏里,她描述自己是康州一名普通的农场妇女,每日都在努力工作、接送孩子上学和烹饪一手美味佳肴。而事实上,伊丽莎白是美国纽约的一个杂志社的记者,她还未曾结婚,对烹饪更是一窍不通,她专栏上的菜谱全部来自她的好友菲利斯。
  
  圣诞节快到了,不知情的杂志社的老板搞了一个活动,让一名立了功的海员到她的康州农场度过一个快乐圣诞,以此宣传杂志社。伊丽莎白这下慌了神,要是真相公之于众的话,她的职业生涯将彻底完蛋。这时只能用尽一切办法瞒天过海……

Video
ID                                       : 1
Format                                   : AVC
Format/Info                              : Advanced Video Codec
Format profile                           : [email protected]
Format settings                          : CABAC / 4 Ref Frames
Format settings, CABAC                   : Yes
Format settings, Reference frames        : 4 frames
Codec ID                                 : V_MPEG4/ISO/AVC
Duration                                 : 1 h 33 min
Bit rate mode                            : Constant
Bit rate                                 : 10 000 kb/s
Width                                    : 1 920 pixels
Height                                   : 1 080 pixels
Display aspect ratio                     : 16:9
Frame rate mode                          : Constant
Frame rate                               : 24.000 FPS
Color space                              : YUV
Chroma subsampling                       : 4:2:0
Bit depth                                : 8 bits
Scan type                                : Progressive
Bits/(Pixel*Frame)                       : 0.201
Stream size                              : 6.48 GiB (98%)
Default                                  : Yes
Forced                                   : No
Color range                              : Limited
Color primaries                          : BT.709
Transfer characteristics                 : BT.709
Matrix coefficients                      : BT.709

Audio
ID                                       : 2
Format                                   : E-AC-3
Format/Info                              : Enhanced AC-3
Commercial name                          : Dolby Digital Plus
Codec ID                                 : A_EAC3
Duration                                 : 1 h 33 min
Bit rate mode                            : Constant
Bit rate                                 : 224 kb/s
Channel(s)                               : 2 channels
Channel layout                           : L R
Sampling rate                            : 48.0 kHz
Frame rate                               : 31.250 FPS (1536 SPF)
Compression mode                         : Lossy
Stream size                              : 150 MiB (2%)
Language                                 : English
Service kind                             : Complete Main
Default                                  : Yes
Forced                                   : No

Text
ID                                       : 3
Format                                   : UTF-8
Codec ID                                 : S_TEXT/UTF8
Codec ID/Info                            : UTF-8 Plain Text
Duration                                 : 1 h 33 min
Bit rate                                 : 96 b/s
Count of elements                        : 2169
Stream size                              : 66.0 KiB (0%)
Title                                    : SDH
Language                                 : English
Default                                  : No
Forced                                   : No


悠悠MP4_MP4电影下载_康州圣诞/康涅狄格圣诞 Christmas.in.Connecticut.1992.1080p.AMZN.WEBRip.DDP2.0.x264-PLiSSKEN悠悠MP4_MP4电影下载_康州圣诞/康涅狄格圣诞 Christmas.in.Connecticut.1992.1080p.AMZN.WEBRip.DDP2.0.x264-PLiSSKEN悠悠MP4_MP4电影下载_康州圣诞/康涅狄格圣诞 Christmas.in.Connecticut.1992.1080p.AMZN.WEBRip.DDP2.0.x264-PLiSSKEN


上传的附件:
最新回复 (0)
返回
本站所有资源均收集自互联网,没有提供影片资源存储, 也未参与录制、上传,若本站收录的资源无意侵犯了您的权益, 请联系邮箱:gogoimgs#gmail.com(#[email protected])