[更早] [其他] [其他] [BD-720P] 丛林精神/森林守護隊 AINBO.Spirit.of.the.Amazon.2021.720p.BluRay.x264-KNiVES 1.83GB

uump4 1月前 366

帖子完整标题:丛林精神/森林守護隊 AINBO.Spirit.of.the.Amazon.2021.720p.BluRay.x264-KNiVES 1.83GB

悠悠MP4_MP4电影下载_丛林精神/森林守護隊 AINBO.Spirit.of.the.Amazon.2021.720p.BluRay.x264-KNiVES 1.83GB

◎译  名 丛林精神/森林守護隊(港)
◎片  名 Ainbo
◎年  代 2021
◎产  地 秘鲁
◎类  别 动画
◎语  言 西班牙语
◎上映日期 2021-03-03(荷兰) / 2021-03-18(俄罗斯)
◎豆瓣评分 /10 from 0 users
◎豆瓣链接 https://movie.douban.com/subject/30254679/
◎导  演 塞萨尔·泽拉达 Cesar Zelada / 约瑟·泽拉达 Jose Zelada
◎编  剧 杰森·克利夫兰 Jason Cleveland / 约瑟·泽拉达 Jose Zelada / 塞萨尔·泽拉达 Cesar Zelada
◎主  演 伯纳多·德·保拉 Bernardo de Paula
       迪诺·安德拉德 Dino Andrade
       亚历杭德拉·戈拉斯 Alejandra Gollas
       苏珊娜·巴列斯特罗斯 Susana Ballesteros
       汤姆·霍夫曼 Thom Hoffman

◎标  签 动画 | 动画电影 | 秘鲁 | 秘鲁电影 | 电影 | 法国 | BASE | 2020

◎简  介

  一个女孩在亚马逊最深的丛林科洛尼亚出生并长大,科洛尼亚依靠亚马逊最强大的母亲精神“海龟妈妈”的支持。有一天,她发现她的祖国正受到威胁,并意识到除了她的人民,世界上还有其他人类。当她努力拯救她的天堂,反对对儿童的贪婪和剥削,伐木和非法采矿,她开始努力扭转这种毁灭和即将到来的邪恶的尤库鲁纳,生活在亚马逊河的黑暗。在母亲的精神指引下,安波决心拯救她的土地和人民,以免为时已晚。

Video
ID                                       : 1
Format                                   : AVC
Format/Info                              : Advanced Video Codec
Format profile                           : [email protected]
Format settings                          : CABAC / 8 Ref Frames
Format settings, CABAC                   : Yes
Format settings, Reference frames        : 8 frames
Codec ID                                 : V_MPEG4/ISO/AVC
Duration                                 : 1 h 24 min
Bit rate                                 : 2 439 kb/s
Width                                    : 1 280 pixels
Height                                   : 536 pixels
Display aspect ratio                     : 2.40:1
Frame rate mode                          : Constant
Frame rate                               : 24.000 FPS
Color space                              : YUV
Chroma subsampling                       : 4:2:0
Bit depth                                : 8 bits
Scan type                                : Progressive
Bits/(Pixel*Frame)                       : 0.148
Stream size                              : 1.44 GiB (79%)
Writing library                          : x264 core 164 r3065 ae03d92
Encoding settings                        : cabac=1 / ref=8 / deblock=1:-3:-3 / analyse=0x3:0x133 / me=umh / subme=9 / psy=1 / psy_rd=1.00:0.00 / mixed_ref=1 / me_range=16 / chroma_me=1 / trellis=2 / 8x8dct=1 / cqm=0 / deadzone=21,11 / fast_pskip=0 / chroma_qp_offset=-2 / threads=17 / lookahead_threads=1 / sliced_threads=0 / nr=0 / decimate=1 / interlaced=0 / bluray_compat=0 / constrained_intra=0 / bframes=3 / b_pyramid=2 / b_adapt=2 / b_bias=0 / direct=3 / weightb=1 / open_gop=0 / weightp=2 / keyint=250 / keyint_min=24 / scenecut=40 / intra_refresh=0 / rc_lookahead=60 / rc=crf / mbtree=1 / crf=17.0 / qcomp=0.60 / qpmin=0 / qpmax=69 / qpstep=4 / ip_ratio=1.40 / aq=1:1.00
Language                                 : English
Default                                  : Yes
Forced                                   : No

Audio
ID                                       : 2
Format                                   : AC-3
Format/Info                              : Audio Coding 3
Commercial name                          : Dolby Digital
Codec ID                                 : A_AC3
Duration                                 : 1 h 24 min
Bit rate mode                            : Constant
Bit rate                                 : 640 kb/s
Channel(s)                               : 6 channels
Channel layout                           : L R C LFE Ls Rs
Sampling rate                            : 48.0 kHz
Frame rate                               : 31.250 FPS (1536 SPF)
Compression mode                         : Lossy
Stream size                              : 388 MiB (21%)
Language                                 : English
Service kind                             : Complete Main
Default                                  : Yes
Forced                                   : No

Text
ID                                       : 3
Format                                   : PGS
Muxing mode                              : zlib
Codec ID                                 : S_HDMV/PGS
Codec ID/Info                            : Picture based subtitle format used on BDs/HD-DVDs
Duration                                 : 1 h 17 min
Bit rate                                 : 34.9 kb/s
Count of elements                        : 2174
Stream size                              : 19.4 MiB (1%)
Language                                 : German
Default                                  : No
Forced                                   : No

Menu
00:00:00.000                             : en:Chapter 01
00:07:39.375                             : en:Chapter 02
00:15:37.833                             : en:Chapter 03
00:23:46.500                             : en:Chapter 04
00:29:52.417                             : en:Chapter 05
00:35:38.958                             : en:Chapter 06
00:42:04.458                             : en:Chapter 07
00:48:36.875                             : en:Chapter 08
00:56:07.917                             : en:Chapter 09
01:03:07.875                             : en:Chapter 10
01:10:26.125                             : en:Chapter 11
01:18:34.875                             : en:Chapter 12





上传的附件:
最新回复 (0)
返回
本站所有资源均收集自互联网,没有提供影片资源存储, 也未参与录制、上传,若本站收录的资源无意侵犯了您的权益, 请联系邮箱:gogoimgs#gmail.com(#[email protected])