[更早] [欧美] [剧情] [BD-720P] 无主之人 No.Man.of.God.2021.720p.BluRay.x264-PiGNUS 4.26GB

uump4 1月前 230

帖子完整标题:无主之人 No.Man.of.God.2021.720p.BluRay.x264-PiGNUS 4.26GB

悠悠MP4_MP4电影下载_无主之人 No.Man.of.God.2021.720p.BluRay.x264-PiGNUS 4.26GB

◎译  名 无主之人
◎片  名 No Man Of God
◎年  代 2021
◎产  地 美国
◎类  别 剧情 / 悬疑 / 传记 / 犯罪
◎语  言 英语
◎上映日期 2021-06-11(美国)
◎豆瓣评分 6.6/10 from 232 users
◎豆瓣链接 https://movie.douban.com/subject/35101438/
◎片  长 100分钟
◎编  剧 C·罗伯特·嘉吉 C. Robert Cargill
◎主  演 伊利亚·伍德 Elijah Wood
       卢克·柯比 Luke Kirby
       阿莱卡萨·帕拉迪诺 Aleksa Palladino
       罗伯特·帕特里克 Robert Patrick
       W·厄尔·布朗 W. Earl Brown
       克里斯蒂安·克莱门松 Christian Clemenson
       雨果·阿姆斯特朗 Hugo Armstrong
       尼卡恩·罗宾逊 Nican Robinson
       威尔·哈里斯 Will Harris
       Jarrett Sleeper Jarrett Sleeper
       道格·考克斯 Doug Cox
       汤姆·维图 Tom Virtue

◎标  签 犯罪 | 美国 | 2021 | 剧情 | 悬疑 | 美国电影 | 惊悚 | 传记

◎简  介

  伊利亚·伍德将主演犯罪题材惊悚片[无主之人](No Man Of God,暂译)。Amber Sealey执导,C·罗伯特·嘉吉([险恶])操刀剧本。影片设定在一个单独的审讯室中,故事根据FBI心理分析师比尔·哈格迈尔(伍德饰)与连环杀手邦迪于1984年至1989年之间的对话文字摘录改编,影片将详细介绍邦迪在死囚牢房最后几年间,两人之间复杂的关系。

Video
ID                                       : 1
Format                                   : AVC
Format/Info                              : Advanced Video Codec
Format profile                           : [email protected]
Format settings                          : CABAC / 8 Ref Frames
Format settings, CABAC                   : Yes
Format settings, Reference frames        : 8 frames
Codec ID                                 : V_MPEG4/ISO/AVC
Duration                                 : 1 h 40 min
Bit rate                                 : 5 405 kb/s
Width                                    : 1 280 pixels
Height                                   : 534 pixels
Display aspect ratio                     : 2.40:1
Frame rate mode                          : Constant
Frame rate                               : 23.976 (24000/1001/189150) FPS
Color space                              : YUV
Chroma subsampling                       : 4:2:0
Bit depth                                : 8 bits
Scan type                                : Progressive
Bits/(Pixel*Frame)                       : 0.330
Stream size                              : 3.78 GiB (89%)
Writing library                          : x264 core 164 r3075 66a5bc1
Encoding settings                        : cabac=1 / ref=8 / deblock=1:-3:-3 / analyse=0x3:0x133 / me=umh / subme=9 / psy=1 / psy_rd=1.00:0.00 / mixed_ref=1 / me_range=16 / chroma_me=1 / trellis=2 / 8x8dct=1 / cqm=0 / deadzone=21,11 / fast_pskip=1 / chroma_qp_offset=-2 / threads=17 / lookahead_threads=1 / sliced_threads=0 / nr=0 / decimate=1 / interlaced=0 / bluray_compat=0 / constrained_intra=0 / bframes=3 / b_pyramid=2 / b_adapt=2 / b_bias=0 / direct=3 / weightb=1 / open_gop=0 / weightp=2 / keyint=250 / keyint_min=23 / scenecut=40 / intra_refresh=0 / rc_lookahead=60 / rc=crf / mbtree=1 / crf=16.5 / qcomp=0.60 / qpmin=0 / qpmax=69 / qpstep=4 / ip_ratio=1.40 / aq=1:1.00
Default                                  : Yes
Forced                                   : No

Audio
ID                                       : 2
Format                                   : AC-3
Format/Info                              : Audio Coding 3
Commercial name                          : Dolby Digital
Codec ID                                 : A_AC3
Duration                                 : 1 h 40 min
Bit rate mode                            : Constant
Bit rate                                 : 640 kb/s
Channel(s)                               : 6 channels
Channel layout                           : L R C LFE Ls Rs
Sampling rate                            : 48.0 kHz
Frame rate                               : 31.250 FPS (1536 SPF)
Compression mode                         : Lossy
Stream size                              : 459 MiB (11%)
Language                                 : English
Service kind                             : Complete Main
Default                                  : Yes
Forced                                   : No

Text #1
ID                                       : 3
Format                                   : PGS
Muxing mode                              : zlib
Codec ID                                 : S_HDMV/PGS
Codec ID/Info                            : Picture based subtitle format used on BDs/HD-DVDs
Duration                                 : 1 h 39 min
Bit rate                                 : 33.5 kb/s
Count of elements                        : 3689
Stream size                              : 23.9 MiB (1%)
Title                                    : English SDH
Language                                 : English
Default                                  : No
Forced                                   : No

Text #2
ID                                       : 4
Format                                   : PGS
Muxing mode                              : zlib
Codec ID                                 : S_HDMV/PGS
Codec ID/Info                            : Picture based subtitle format used on BDs/HD-DVDs
Duration                                 : 1 h 35 min
Bit rate                                 : 33.7 kb/s
Count of elements                        : 3258
Stream size                              : 22.9 MiB (1%)
Title                                    : French
Language                                 : French
Default                                  : No
Forced                                   : No

Text #3
ID                                       : 5
Format                                   : PGS
Muxing mode                              : zlib
Codec ID                                 : S_HDMV/PGS
Codec ID/Info                            : Picture based subtitle format used on BDs/HD-DVDs
Duration                                 : 1 h 35 min
Bit rate                                 : 29.0 kb/s
Count of elements                        : 3100
Stream size                              : 19.8 MiB (0%)
Title                                    : Spanish
Language                                 : Spanish
Default                                  : No
Forced                                   : No

Menu
00:00:00.000                             : en:Chapter 01
00:24:54.702                             : en:Chapter 02
00:35:32.630                             : en:Chapter 03
00:47:46.405                             : en:Chapter 04
01:00:58.321                             : en:Chapter 05
01:15:18.305                             : en:Chapter 06
01:21:24.880                             : en:Chapter 07
01:35:47.367                             : en:Chapter 08
01:40:13.090                             : en:Chapter 09


悠悠MP4_MP4电影下载_无主之人 No.Man.of.God.2021.720p.BluRay.x264-PiGNUS 4.26GB


上传的附件:
最新回复 (0)
返回
本站所有资源均收集自互联网,没有提供影片资源存储, 也未参与录制、上传,若本站收录的资源无意侵犯了您的权益, 请联系邮箱:gogoimgs#gmail.com(#[email protected])