[更早] [其他] [喜剧] [WEB-1080P] 章鱼 Le.poulpe.1998.FRENCH.1080p.NF.WEBRip.DDP2.0.x264-playWEB 5.63GB

uump4 1月前 276

帖子完整标题:章鱼 Le.poulpe.1998.FRENCH.1080p.NF.WEBRip.DDP2.0.x264-playWEB 5.63GB

悠悠MP4_MP4电影下载_章鱼 Le.poulpe.1998.FRENCH.1080p.NF.WEBRip.DDP2.0.x264-playWEB 5.63GB

◎译  名 章鱼/The Octopus
◎片  名 Le poulpe
◎年  代 1998
◎产  地 法国
◎类  别 喜剧 / 惊悚 / 犯罪
◎语  言 法语
◎上映日期 1998-10-07
◎豆瓣评分 /10 from 0 users
◎豆瓣链接 https://movie.douban.com/subject/1773879/
◎片  长 100 分钟
◎导  演 纪尧姆·尼克卢 Guillaume Nicloux
◎编  剧 纪尧姆·尼克卢 Guillaume Nicloux
◎主  演 让-皮埃尔·达鲁森 Jean-Pierre Darroussin
       克洛蒂尔·蔻洛 Clotilde Courau
       朱莉·德拉姆 Julie Delarme
       詹姆斯·福克纳 James Faulkner
       让-佛朗索瓦·戈马特 Jean-Fran?ois Gallotte
       布鲁诺·洛歇 Bruno Lochet
       菲利普·纳翁 Philippe Nahon
       朱利安·拉萨姆 Julien Rassam
       伊夫·费尔赫芬 Yves Verhoeven
       Lise Lamétrie Lise Lamétrie
       奥利维耶·富贝尔 Olivier Foubert

◎标  签 法国 | 犯罪 | 法国电影 | suninmind | 黑色幽默 | 黑色 | 西兰花国 | 惊悚

◎简  介

  绰号章鱼的乐库尔决定和他的女朋友谢丽尔离开巴黎。因为在和戴面具的男人折腾了一番后,他很需要休息放松。可是,当他们回到谢丽尔的家乡莫桑的时候,他又遇到另一件耗时费力的怪事:谢丽尔父母的墓地被盗了。于是,章鱼开始寻找盗墓者。

Video
ID                                       : 1
Format                                   : AVC
Format/Info                              : Advanced Video Codec
Format profile                           : [email protected]
Format settings                          : CABAC / 4 Ref Frames
Format settings, CABAC                   : Yes
Format settings, Reference frames        : 4 frames
Codec ID                                 : V_MPEG4/ISO/AVC
Duration                                 : 1 h 39 min
Bit rate mode                            : Variable
Bit rate                                 : 7 944 kb/s
Maximum bit rate                         : 20.0 Mb/s
Width                                    : 1 920 pixels
Height                                   : 1 080 pixels
Display aspect ratio                     : 16:9
Frame rate mode                          : Constant
Frame rate                               : 24.000 FPS
Color space                              : YUV
Chroma subsampling                       : 4:2:0
Bit depth                                : 8 bits
Scan type                                : Progressive
Bits/(Pixel*Frame)                       : 0.160
Stream size                              : 5.54 GiB (98%)
Writing library                          : x264 core 148 r2724 dbe0335
Encoding settings                        : cabac=1 / ref=4 / deblock=1:0:0 / analyse=0x3:0x111 / me=umh / subme=10 / psy=1 / psy_rd=1.00:0.00 / mixed_ref=1 / me_range=120 / chroma_me=1 / trellis=2 / 8x8dct=1 / cqm=0 / deadzone=21,11 / fast_pskip=1 / chroma_qp_offset=-2 / threads=8 / lookahead_threads=2 / sliced_threads=0 / nr=0 / decimate=1 / interlaced=0 / bluray_compat=0 / stitchable=1 / constrained_intra=0 / bframes=16 / b_pyramid=2 / b_adapt=2 / b_bias=0 / direct=3 / weightb=1 / open_gop=0 / weightp=2 / keyint=240 / keyint_min=121 / scenecut=0 / intra_refresh=0 / rc_lookahead=240 / rc=crf / mbtree=1 / crf=20.0 / qcomp=0.50 / qpmin=6 / qpmax=51 / qpstep=4 / vbv_maxrate=20000 / vbv_bufsize=25000 / crf_max=0.0 / nal_hrd=vbr / filler=0 / ip_ratio=1.40 / aq=1:0.80
Default                                  : Yes
Forced                                   : No

Audio
ID                                       : 2
Format                                   : E-AC-3
Format/Info                              : Enhanced AC-3
Commercial name                          : Dolby Digital Plus
Codec ID                                 : A_EAC3
Duration                                 : 1 h 39 min
Bit rate mode                            : Constant
Bit rate                                 : 128 kb/s
Channel(s)                               : 2 channels
Channel layout                           : L R
Sampling rate                            : 48.0 kHz
Frame rate                               : 31.250 FPS (1536 SPF)
Compression mode                         : Lossy
Stream size                              : 91.4 MiB (2%)
Title                                    : French
Language                                 : French
Service kind                             : Complete Main
Default                                  : No
Forced                                   : No

Text #1
ID                                       : 3
Format                                   : UTF-8
Codec ID                                 : S_TEXT/UTF8
Codec ID/Info                            : UTF-8 Plain Text
Duration                                 : 1 h 39 min
Bit rate                                 : 46 b/s
Count of elements                        : 1159
Stream size                              : 33.6 KiB (0%)
Title                                    : English
Language                                 : English
Default                                  : No
Forced                                   : No

Text #2
ID                                       : 4
Format                                   : UTF-8
Codec ID                                 : S_TEXT/UTF8
Codec ID/Info                            : UTF-8 Plain Text
Duration                                 : 1 h 39 min
Bit rate                                 : 39 b/s
Count of elements                        : 1165
Stream size                              : 28.9 KiB (0%)
Title                                    : Croatian
Language                                 : Croatian
Default                                  : No
Forced                                   : No

Text #3
ID                                       : 5
Format                                   : UTF-8
Codec ID                                 : S_TEXT/UTF8
Codec ID/Info                            : UTF-8 Plain Text
Duration                                 : 1 h 39 min
Bit rate                                 : 45 b/s
Count of elements                        : 1169
Stream size                              : 32.8 KiB (0%)
Title                                    : Czech
Language                                 : Czech
Default                                  : No
Forced                                   : No

Text #4
ID                                       : 6
Format                                   : UTF-8
Codec ID                                 : S_TEXT/UTF8
Codec ID/Info                            : UTF-8 Plain Text
Duration                                 : 1 h 39 min
Bit rate                                 : 47 b/s
Count of elements                        : 1168
Stream size                              : 34.8 KiB (0%)
Title                                    : Danish
Language                                 : Danish
Default                                  : No
Forced                                   : No

Text #5
ID                                       : 7
Format                                   : UTF-8
Codec ID                                 : S_TEXT/UTF8
Codec ID/Info                            : UTF-8 Plain Text
Duration                                 : 1 h 35 min
Bit rate                                 : 44 b/s
Count of elements                        : 936
Stream size                              : 30.7 KiB (0%)
Title                                    : Dutch
Language                                 : Dutch
Default                                  : No
Forced                                   : No

Text #6
ID                                       : 8
Format                                   : UTF-8
Codec ID                                 : S_TEXT/UTF8
Codec ID/Info                            : UTF-8 Plain Text
Duration                                 : 1 h 39 min
Bit rate                                 : 44 b/s
Count of elements                        : 1155
Stream size                              : 32.3 KiB (0%)
Title                                    : Finnish
Language                                 : Finnish
Default                                  : No
Forced                                   : No

Text #7
ID                                       : 9
Format                                   : UTF-8
Codec ID                                 : S_TEXT/UTF8
Codec ID/Info                            : UTF-8 Plain Text
Duration                                 : 1 h 35 min
Bit rate                                 : 62 b/s
Count of elements                        : 1369
Stream size                              : 43.9 KiB (0%)
Title                                    : French
Language                                 : French
Default                                  : No
Forced                                   : No

Text #8
ID                                       : 10
Format                                   : UTF-8
Codec ID                                 : S_TEXT/UTF8
Codec ID/Info                            : UTF-8 Plain Text
Duration                                 : 1 h 28 min
Bit rate                                 : 0 b/s
Count of elements                        : 18
Stream size                              : 428 Bytes (0%)
Title                                    : Forced
Language                                 : French
Default                                  : No
Forced                                   : Yes

Text #9
ID                                       : 11
Format                                   : UTF-8
Codec ID                                 : S_TEXT/UTF8
Codec ID/Info                            : UTF-8 Plain Text
Duration                                 : 1 h 39 min
Bit rate                                 : 74 b/s
Count of elements                        : 1174
Stream size                              : 54.5 KiB (0%)
Title                                    : Greek
Language                                 : Greek
Default                                  : No
Forced                                   : No

Text #10
ID                                       : 12
Format                                   : UTF-8
Codec ID                                 : S_TEXT/UTF8
Codec ID/Info                            : UTF-8 Plain Text
Duration                                 : 1 h 39 min
Bit rate                                 : 43 b/s
Count of elements                        : 1168
Stream size                              : 31.9 KiB (0%)
Title                                    : Hungarian
Language                                 : Hungarian
Default                                  : No
Forced                                   : No

Text #11
ID                                       : 13
Format                                   : UTF-8
Codec ID                                 : S_TEXT/UTF8
Codec ID/Info                            : UTF-8 Plain Text
Duration                                 : 1 h 39 min
Bit rate                                 : 46 b/s
Count of elements                        : 1162
Stream size                              : 33.6 KiB (0%)
Title                                    : Italian
Language                                 : Italian
Default                                  : No
Forced                                   : No

Text #12
ID                                       : 14
Format                                   : UTF-8
Codec ID                                 : S_TEXT/UTF8
Codec ID/Info                            : UTF-8 Plain Text
Duration                                 : 1 h 39 min
Bit rate                                 : 45 b/s
Count of elements                        : 1154
Stream size                              : 33.2 KiB (0%)
Title                                    : Norwegian Bokmal
Language                                 : Norwegian Bokmal
Default                                  : No
Forced                                   : No

Text #13
ID                                       : 15
Format                                   : UTF-8
Codec ID                                 : S_TEXT/UTF8
Codec ID/Info                            : UTF-8 Plain Text
Duration                                 : 1 h 39 min
Bit rate                                 : 43 b/s
Count of elements                        : 1168
Stream size                              : 31.7 KiB (0%)
Title                                    : Portuguese
Language                                 : Portuguese
Default                                  : No
Forced                                   : No

Text #14
ID                                       : 16
Format                                   : UTF-8
Codec ID                                 : S_TEXT/UTF8
Codec ID/Info                            : UTF-8 Plain Text
Duration                                 : 1 h 39 min
Bit rate                                 : 44 b/s
Count of elements                        : 1074
Stream size                              : 32.3 KiB (0%)
Title                                    : Romanian
Language                                 : Romanian
Default                                  : No
Forced                                   : No

Text #15
ID                                       : 17
Format                                   : UTF-8
Codec ID                                 : S_TEXT/UTF8
Codec ID/Info                            : UTF-8 Plain Text
Duration                                 : 1 h 39 min
Bit rate                                 : 71 b/s
Count of elements                        : 1175
Stream size                              : 51.8 KiB (0%)
Title                                    : Russian
Language                                 : Russian
Default                                  : No
Forced                                   : No

Text #16
ID                                       : 18
Format                                   : UTF-8
Codec ID                                 : S_TEXT/UTF8
Codec ID/Info                            : UTF-8 Plain Text
Duration                                 : 1 h 39 min
Bit rate                                 : 46 b/s
Count of elements                        : 1132
Stream size                              : 34.2 KiB (0%)
Title                                    : European Spanish
Language                                 : Spanish
Default                                  : No
Forced                                   : No

Text #17
ID                                       : 19
Format                                   : UTF-8
Codec ID                                 : S_TEXT/UTF8
Codec ID/Info                            : UTF-8 Plain Text
Duration                                 : 1 h 39 min
Bit rate                                 : 45 b/s
Count of elements                        : 1166
Stream size                              : 33.2 KiB (0%)
Title                                    : Swedish
Language                                 : Swedish
Default                                  : No
Forced                                   : No


悠悠MP4_MP4电影下载_章鱼 Le.poulpe.1998.FRENCH.1080p.NF.WEBRip.DDP2.0.x264-playWEB 5.63GB悠悠MP4_MP4电影下载_章鱼 Le.poulpe.1998.FRENCH.1080p.NF.WEBRip.DDP2.0.x264-playWEB 5.63GB悠悠MP4_MP4电影下载_章鱼 Le.poulpe.1998.FRENCH.1080p.NF.WEBRip.DDP2.0.x264-playWEB 5.63GB


上传的附件:
最新回复 (0)
返回
本站所有资源均收集自互联网,没有提供影片资源存储, 也未参与录制、上传,若本站收录的资源无意侵犯了您的权益, 请联系邮箱:gogoimgs#gmail.com(#[email protected])