[2017] 迷镇凶案/坚离地死人劫案 Suburbicon.2017.2160p.WEB-DL.DD5.1.DV.MP4.x265-TEPES 11.02GB

uump4 1月前 300

帖子完整标题:迷镇凶案/坚离地死人劫案 Suburbicon.2017.2160p.WEB-DL.DD5.1.DV.MP4.x265-TEPES 11.02GB

悠悠MP4_MP4电影下载_迷镇凶案/坚离地死人劫案 Suburbicon.2017.2160p.WEB-DL.DD5.1.DV.MP4.x265-TEPES 11.02GB

◎译  名 迷镇凶案/坚离地死人劫案(港)/完美社区谋杀案(台)/小镇郊区/迷镇
◎片  名 Suburbicon
◎年  代 2017
◎产  地 美国,英国
◎类  别 喜剧 / 悬疑 / 犯罪
◎语  言 英语
◎上映日期 2017-09-02(威尼斯电影节) / 2017-10-27(美国) / 2018-01-12(中国大陆)
◎豆瓣评分 6.2/10 from 22026 users
◎豆瓣链接 https://movie.douban.com/subject/2133433/
◎片  长 104分钟
◎导  演 乔治·克鲁尼 George Clooney
◎编  剧 乔尔·科恩 Joel Coen / 伊桑·科恩 Ethan Coen / 乔治·克鲁尼 George Clooney / 格兰特·赫斯洛夫 Grant Heslov
◎主  演 马特·达蒙 Matt Damon
      朱丽安·摩尔 Julianne Moore
      奥斯卡·伊萨克 Oscar Isaac
      诺亚·尤佩 Noah Jupe
      托尼·埃斯皮诺萨 Tony Espinosa
      格伦·弗莱舍尔 Glenn Fleshler
      梅根·弗格森 Megan Ferguson
      杰克·康利 Jack Conley
      迈克尔·D·科恩 Michael D. Cohen
      黛安·德恩 Diane Dehn
      盖里·巴萨拉巴 Gary Basaraba
      斯蒂夫·蒙罗埃 Steve Monroe
      阿历克斯·哈赛尔 Alex Hassell
      利斯·M·伯克 Leith M. Burke
      克里麦·威斯特博克 Karimah Westbrook
      霍普·班克斯 Hope Banks
      罗伯特·皮尔斯 Robert Pierce
      文斯·切法卢 Vince Cefalu
      达什·威廉姆斯 Dash Williams
      加文·怀尔德 Gavin Wilde
      兰登·戈登 Landon Gordon
      蒂姆·聂夫 Tim Neff
      马拉·费尔克拉夫 Marah Fairclough
      艾米丽·高斯 Emily Goss
      艾瑞克·奥德 Erik Aude
      布拉迪·艾伦 Brady Allen

◎标  签 犯罪 | 美国 | 黑色幽默 | 悬疑 | 人性 | 剧情 | 2017 | 喜剧

◎简  介

  20世纪50年代僻静的家乡小镇,中年男子加德纳(马特·达蒙 饰)的妻子在家中被杀害。由此宁静的生活被打破,引发出一连串勒索、骗保、迷情事件。而对面邻居搬来了一家黑人,又因此打破了整个小镇的宁静。家庭危机和小镇危机交织在了一起……

◎获奖情况

  第74届威尼斯电影节 ?(2017)
  主竞赛单元金狮奖(提名) 乔治·克鲁尼

Video
ID : 1
Format : HEVC
Format/Info : High Efficiency Video Coding
Format profile : Main [email protected]@High
HDR format : Dolby Vision, Version 1.0, dvhe.05.06, BL+RPU
Codec ID : dvhe
Codec ID/Info : High Efficiency Video Coding with Dolby Vision
Duration : 1 h 45 min
Bit rate : 14.6 Mb/s
Width : 3 840 pixels
Height : 2 160 pixels
Display aspect ratio : 16:9
Frame rate mode : Constant
Frame rate : 23.976 (24000/1001/189150) FPS
Color space : YUV
Chroma subsampling : 4:2:0 (Type 0)
Bit depth : 10 bits
Bits/(Pixel*Frame) : 0.074
Stream size : 10.7 GiB (97%)
Default : Yes
Alternate group : 1
Encoded date : UTC 2021-10-26 19:33:10
Tagged date : UTC 2021-10-26 19:35:10
Color range : Full
Codec configuration box : hvcC+dvcC

Audio
ID : 2
Format : AC-3
Format/Info : Audio Coding 3
Commercial name : Dolby Digital
Codec ID : ac-3
Duration : 1 h 45 min
Bit rate mode : Constant
Bit rate : 384 kb/s
Maximum bit rate : 406 kb/s
Channel(s) : 6 channels
Channel layout : L R C LFE Ls Rs
Sampling rate : 48.0 kHz
Frame rate : 31.250 FPS (1536 SPF)
Compression mode : Lossy
Stream size : 288 MiB (3%)
Language : English
Service kind : Complete Main
Encoded date : UTC 2021-10-26 19:33:00
Tagged date : UTC 2021-10-26 19:35:10

Text
ID : 3
Format : Timed Text
Codec ID : tx3g
Duration : 1 h 35 min
Bit rate mode : Variable
Bit rate : 62 b/s
Stream size : 43.5 KiB (0%)
Language : English
Forced : No
Encoded date : UTC 2021-10-26 19:35:10
Tagged date : UTC 2021-10-26 19:35:10




上传的附件:
最新回复 (0)
返回
本站所有资源均收集自互联网,没有提供影片资源存储, 也未参与录制、上传,若本站收录的资源无意侵犯了您的权益, 请联系邮箱:gogoimgs#gmail.com(#[email protected])