[2008] [欧美] [动作] [WEB-1080P] 功夫杀手 Kung.Fu.Killer.2008.1080p.AMZN.WEBRip.DDP5.1.x264-QOQ 13.02GB

uump4 1月前 881

帖子完整标题:功夫杀手 Kung.Fu.Killer.2008.1080p.AMZN.WEBRip.DDP5.1.x264-QOQ 13.02GB

悠悠MP4_MP4电影下载_功夫杀手 Kung.Fu.Killer.2008.1080p.AMZN.WEBRip.DDP5.1.x264-QOQ 13.02GB

◎译  名 功夫杀手/The White Crane Chronicles/白鹤功夫传
◎片  名 Kung Fu Killer
◎年  代 2008
◎产  地 美国
◎类  别 动作
◎语  言 英语
◎上映日期 2008-02-29
◎豆瓣评分 /10 from 0 users
◎豆瓣链接 https://movie.douban.com/subject/3408492/
◎导  演 菲利普·史派克 Philip Spink
◎编  剧 杰奎琳·费瑟 Jacqueline Feather / 大卫·塞德勒 David Seidler
◎主  演 大卫·卡拉丁 David Carradine
       达丽尔·汉纳 Daryl Hannah
       周玲安 Betty Zhou
       吴妍妍 Yanyan Wu
       安雅 Anya
       James Taenaka James Taenaka
       郑佩佩 Pei-pei Cheng
       周逸之 Osric Chau
       徐丽东 Li-Tong Hsu

◎标  签 动作 | 功夫 | 美国 | 美国电影 | 穿越 | 攒 | 我想看这部电影 | 功夫杀手

◎简  介

  1929年,中国正处于兵荒马乱之中,军阀割据,其中一名军阀卡恩雄踞一省进行鸦片交易,对不服从者横下杀手,只有武当门人敢于卡恩作对,以正中华之风,对立二者之间上有一名西方武术大师白鹤,他是无辜百姓的守护者,军队袭击了武当庙,杀害了妙龄大师,白鹤燃气了熊熊怒火......

Video #2
ID                                       : 3
Format                                   : AVC
Format/Info                              : Advanced Video Codec
Format profile                           : [email protected]
Format settings                          : CABAC / 4 Ref Frames
Format settings, CABAC                   : Yes
Format settings, Reference frames        : 4 frames
Codec ID                                 : V_MPEG4/ISO/AVC
Duration                                 : 1 h 30 min
Bit rate mode                            : Constant
Bit rate                                 : 10 000 kb/s
Width                                    : 1 920 pixels
Height                                   : 1 080 pixels
Display aspect ratio                     : 16:9
Frame rate mode                          : Constant
Frame rate                               : 23.976 (24000/1001/189150) FPS
Color space                              : YUV
Chroma subsampling                       : 4:2:0
Bit depth                                : 8 bits
Scan type                                : Progressive
Bits/(Pixel*Frame)                       : 0.201
Stream size                              : 6.03 GiB (46%)
Default                                  : No
Forced                                   : No
Color range                              : Limited
Color primaries                          : BT.709
Transfer characteristics                 : BT.709
Matrix coefficients                      : BT.709

Audio #1
ID                                       : 2
Format                                   : E-AC-3
Format/Info                              : Enhanced AC-3
Commercial name                          : Dolby Digital Plus
Codec ID                                 : A_EAC3
Duration                                 : 1 h 32 min
Bit rate mode                            : Constant
Bit rate                                 : 640 kb/s
Channel(s)                               : 6 channels
Channel layout                           : L R C LFE Ls Rs
Sampling rate                            : 48.0 kHz
Frame rate                               : 31.250 FPS (1536 SPF)
Compression mode                         : Lossy
Stream size                              : 422 MiB (3%)
Language                                 : English
Service kind                             : Complete Main
Default                                  : Yes
Forced                                   : No

Audio #2
ID                                       : 4
Format                                   : E-AC-3
Format/Info                              : Enhanced AC-3
Commercial name                          : Dolby Digital Plus
Codec ID                                 : A_EAC3
Duration                                 : 1 h 30 min
Bit rate mode                            : Constant
Bit rate                                 : 640 kb/s
Channel(s)                               : 6 channels
Channel layout                           : L R C LFE Ls Rs
Sampling rate                            : 48.0 kHz
Frame rate                               : 31.250 FPS (1536 SPF)
Compression mode                         : Lossy
Stream size                              : 414 MiB (3%)
Language                                 : English
Service kind                             : Complete Main
Default                                  : No
Forced                                   : No


悠悠MP4_MP4电影下载_功夫杀手 Kung.Fu.Killer.2008.1080p.AMZN.WEBRip.DDP5.1.x264-QOQ 13.02GB悠悠MP4_MP4电影下载_功夫杀手 Kung.Fu.Killer.2008.1080p.AMZN.WEBRip.DDP5.1.x264-QOQ 13.02GB悠悠MP4_MP4电影下载_功夫杀手 Kung.Fu.Killer.2008.1080p.AMZN.WEBRip.DDP5.1.x264-QOQ 13.02GB


上传的附件:
最新回复 (0)
返回
本站所有资源均收集自互联网,没有提供影片资源存储, 也未参与录制、上传,若本站收录的资源无意侵犯了您的权益, 请联系邮箱:gogoimgs#gmail.com(#[email protected])