[2021] [大陆] [剧情] [打包] [功勋.Medal.of.The.Republic][全48集][国语中字无水印][WEB-MP4][2160P(4K)][DHTCLUB][普码]

uump4 1月前 1766

悠悠MP4_MP4电影下载_[功勋.Medal.of.The.Republic][全48集][国语中字无水印][WEB-MP4][2160P(4K)][DHTCLUB][普码]


◎译  名 Medal of The Republic

◎片  名 功勋

◎年  代 2021

◎产  地 中国大陆

◎类  别 剧情 / 传记

◎语  言 汉语普通话

◎上映日期 2021-09-26(中国大陆)

◎豆瓣评分 9.1/10 from 37352 users

◎豆瓣链接 https://movie.douban.com/subject/34951103

◎集  数 48

◎片  长 46分钟

◎导  演 郑晓龙 Xiaolong Zheng / 毛卫宁 Weining Mao / 沈严 Yan Shen / 康洪雷 Honglei Kang / 杨阳 Yang Yang / 林楠 Nan Lin / 杨文军 Wenjun Yang / 阎建钢 Jiangang Yan

◎编  剧 刘戈建 Gejian Liu / 李修文 Xiuwen Li / 王小枪 Xiaoqiang Wang / 陈枰 Ping Chen / 申捷 Jie Shen / 巩向东 Xiangdong Gong / 徐速 Su Xu / 王小平 Xiaoping Wang / 宋方金 Fangjin Song

◎主  演 王雷 Lei Wang

       雷佳音 Jiayin Lei

       郭涛 Tao Guo

       黄晓明 Xiaoming Huang

       蒋欣 Xin Jiang

       佟大为 Dawei Tong

       周迅 Xun Zhou

       黄志忠 Zhizhong Huang

       邵汶 Wen Shao

       郝荣光 Rongguang Hao

       鲁诺 Nuo Lu

       孙锡堃 Xikun Sun

       倪妮 Ni Ni

       杨烁 Shuo Yang

       王骁 Xiao Wang

       是安 An Shi

       田小洁 Xiaojie Tian

       柯宇 Yu Ke

       李添诺 Tiannuo Li

       尤勇智 Yongzhi You

       胡可 Ke Hu

       李野萍 Yeping Li

       白凡 Fan Bai 

       刚毅 Yi Gang

       马佳玛尧 Jiamayao Ma

       孙茜 Qian Sun

       丁勇岱 Yongdai Ding

       娄乃鸣 Naiming Lou

       迟蓬 Peng Chi

       罗京民 Jingmin Luo

       刘小蕙 Xiaohui Liu

       德姬 Deji

       陈好 Hao Chen

       章贺 He Zhang

       黄小蕾 Xiaolei Huang

       王洛勇 Luoyong Wang

       宿宇杰 Yujie Su

       管云鹏 Yunpeng Guan

       陈震 Marco Chen

       夷永定 Yongding Yi

       王鑫 Xin Wang

       张凯丽 Kaili Zhang

       倪萍 Ping Ni

       孟阿赛 Asai Meng

       张洪杰 Hongjie Zhang

       左小青 Xiaoqing Zuo

       迟帅 Shuai Chi

       李光洁 Guangjie Li

       陈赫 He Chen

       王菁华 Jinghua Wang

       邢岷山 Minshan Xing

       刘宇宁 Yuning Liu

       菅纫姿 Renzi Jian

       孙俪 Li Sun

       刘奕君 Yijun Liu

       王自健 Zijian Wang

       王亚楠 Yanan Wang

       朱刚日尧 Gangriyao Zhu

       张颂文 Songwen Zhang

       陈宝国 Baoguo Chen

       奚美娟 Meijuan Xi

       于荣光 Ringo Yu

       董洁 Jie Dong

       任重 Zhong Ren

       蒋梦婕 Mengjie Jiang

       柴隽哲 Chai Jun Zhe

       威力斯 Lisi Wei

       李祉默 Zhimo Li

       李依蒙 Yimeng Li

       赵爱诚 Aicheng Zhao

       王文强 Wenqiang Wang

       刘智扬 Zhiyang Liu

       白志迪 Zhidi Bai


◎标  签 建党100周年献礼剧 | 历史 | 国产剧 | 史诗 | 建党百年 | 传记 | 献礼剧 | 电视剧


◎简  介


  该剧取材于首批八位“共和国勋章”获得者的真实故事,以“国家叙事、时代表达”的艺术手法,用单元剧的形式,将首批八位功勋人物的人生华彩篇章与共和国命运串联起来,诠释了他们“忠诚、执着、朴实”的人生品格和献身祖国人民的崇高境界。

  李延年(王雷 饰):讲述其在抗美援朝战场上的英雄故事。

  于敏(雷佳音 饰):从少年、青年和中年三个时期讲述他投身国防安全事业的故事。

  张富清(郭涛 饰):描绘其作为战斗英雄转业后扎根基层的故事。

  黄旭华(黄晓明 饰):以核潜艇下潜极限为故事压力点和戏剧转折点,再现我国自主研发核潜艇的艰难历程。

  申纪兰(蒋欣 饰):着重展现她首倡"男女同工同酬"并当选第一届全国人大代表的经历。

  孙家栋(佟大为 饰):以无数次的试验失败为切入点,展现其代表的中国科学家永不言弃的探索精神。

  屠呦呦(周迅 饰):展示她研发抗疟新药青蒿素的全过程,并回答人们对其个人获得诺贝尔奖的某些疑惑。

  袁隆平(黄志忠 饰):从梦境展开,讲他如何为祖国和世界人民的温饱问题不懈奋斗。


悠悠MP4_MP4电影下载_[功勋.Medal.of.The.Republic][全48集][国语中字无水印][WEB-MP4][2160P(4K)][DHTCLUB][普码]

General


Format                         : MPEG-4
Format profile                 : Base Media
Codec ID                       : isom (isom/iso2/mp41)
File size                      : 1.68 GiB
Duration                       : 46 min 2 s
Overall bit rate mode          : Variable
Overall bit rate               : 5 213 kb/s
Movie name                     : 功勳(2021)
Recorded date                  : 2021-09-27T17:06:03.6086511+08:00
Writing application            : Automatic WEB Program
Cover                          : Yes
Comment                        : HDCTV original works.

Video
ID                             : 1
Format                         : HEVC
Format/Info                    : High Efficiency Video Coding
Format profile                 : [email protected]@Main
Codec ID                       : hev1
Codec ID/Info                  : High Efficiency Video Coding
Duration                       : 46 min 2 s
Bit rate                       : 5 015 kb/s
Width                          : 3 840 pixels
Height                         : 2 160 pixels
Display aspect ratio           : 16:9
Frame rate mode                : Constant
Frame rate                     : 25.000 FPS
Color space                    : YUV
Chroma subsampling             : 4:2:0
Bit depth                      : 8 bits
Bits/(Pixel*Frame)             : 0.024
Stream size                    : 1.61 GiB (96%)
Color range                    : Limited
Color primaries                : BT.709
Transfer characteristics       : BT.709
Matrix coefficients            : BT.709
Codec configuration box        : hvcC

Audio
ID                             : 2
Format                         : AAC LC
Format/Info                    : Advanced Audio Codec Low Complexity
Codec ID                       : mp4a-40-2
Duration                       : 46 min 2 s
Bit rate mode                  : Variable
Bit rate                       : 192 kb/s
Channel(s)                     : 2 channels
Channel layout                 : L R
Sampling rate                  : 44.1 kHz
Frame rate                     : 43.066 FPS (1024 SPF)
Compression mode               : Lossy
Stream size                    : 62.4 MiB (4%)
Title                          : HDCTV
Default                        : Yes
Alternate group                : 1


本人发布的种子请使用专业BT下载工具:

UT,Bitcomet,qBittorrent,Xdown开启上传后再下载!!!

使用迅雷或度盘离线可能会没速度!!!


视频的网盘资源均在视频后缀(如mp4或mkv)后又跟随了.xy(mp4.xy或mkv.xy)用以混淆官方视听!
并且加密了文件名,设置了独有的解压密码,请使用WinRAR解压,使用好压或其他可能会出错!
已完结剧集不再分集打包上传,整体打包后分卷,无法单独下载某一集,需要全部下载后一起解压,敬请知晓!
请各位下载的坛友先保存至自己的网盘,然后再进行下载!!!
不要直接在线观看或者解压,否则会很快被网盘官方发觉并和谐!


阿里云盘后缀名凡是“PDF”的,请在下载完成后将后缀名“PDF”修改为“rar”,即可正常解压,观看!

目前阿里云盘上传和下载均不限速,趁着这段“免费VIP”的时间,就暂时放弃度盘吧!

网盘分享的资源请大家先保存至自己网盘,然后再进行下载和在线播放等操作,以此延长资源存在时间!失效不免费补!


BT种子的资源请下载完成的朋友自觉做种一段时间,小水管出种不易,且下且珍惜,谢谢!!!


解压请使用官方原版WinRAR,使用破解版或者好压等软件可能会出错,感谢所有赞赏的朋友!!!

上传的附件:
最新回复 (0)
返回
本站所有资源均收集自互联网,没有提供影片资源存储, 也未参与录制、上传,若本站收录的资源无意侵犯了您的权益, 请联系邮箱:gogoimgs#gmail.com(#[email protected])