[更早] [欧美] [动作] [BD-720P] WWE:夏日狂潮 2021 WWE.Summerslam.2021.720p.BluRay.x264-FREEMAN 8.74GB

uump4 1月前 612

帖子完整标题:WWE:夏日狂潮 2021 WWE.Summerslam.2021.720p.BluRay.x264-FREEMAN 8.74GB

悠悠MP4_MP4电影下载_WWE:夏日狂潮 2021 WWE.Summerslam.2021.720p.BluRay.x264-FREEMAN 8.74GB

◎译  名 WWE:夏日狂潮 2021
◎片  名 WWE: SummerSlam 2021
◎年  代 2021
◎产  地 美国
◎类  别 动作 / 运动 / 真人秀
◎语  言 英语
◎上映日期 2021-08-21(美国)
◎豆瓣评分 /10 from 0 users
◎豆瓣链接 https://movie.douban.com/subject/35575650/
◎导  演 凯文·杜恩 Kevin Dunn
◎编  剧 文斯·麦马汉 Vince McMahon
◎主  演 约翰·塞纳 John Cena
       罗曼·雷恩斯 Roman Reigns
       鲍比·莱斯利 Bobby Lashley
       比尔·戈德博格 Bill Goldberg
       布洛克·莱斯纳 Brock Lesnar
       塞斯·罗林斯 Seth Rollins
       艾吉 Adam Copeland
       艾希莉·弗莱尔 Ashley Fliehr
       萨莎·班克斯 Sasha Banks
       比安卡·布莱尔 Bianca Blair
       瑞贝卡·奎恩 Rebecca Quin
       德鲁·盖洛韦 Drew Galloway
       希莫斯 Stephen Farrelly

◎标  签 美国 | 暴力 | 喜剧 | 动作 | 体育 | WWE | 2021

◎简  介

  由《WWE 2K22》和Credit One Bank联合为您呈现的第34届SummerSlam将于东部时间2021年8月21日晚8点(北京时间8月22日早8点,垫场秀7点)于内华达州天堂市的忠实航空体育场(Allegiant Stadium)举行!!这将是WWE历史上首次在当地时间周六举办PPV现场直播。

Video
ID                                       : 1
Format                                   : AVC
Format/Info                              : Advanced Video Codec
Format profile                           : [email protected]
Format settings                          : CABAC / 8 Ref Frames
Format settings, CABAC                   : Yes
Format settings, Reference frames        : 8 frames
Codec ID                                 : V_MPEG4/ISO/AVC
Duration                                 : 4 h 0 min
Bit rate                                 : 5 000 kb/s
Width                                    : 1 280 pixels
Height                                   : 720 pixels
Display aspect ratio                     : 16:9
Frame rate mode                          : Constant
Frame rate                               : 29.970 (30000/1001/189150) FPS
Color space                              : YUV
Chroma subsampling                       : 4:2:0
Bit depth                                : 8 bits
Scan type                                : Progressive
Bits/(Pixel*Frame)                       : 0.181
Stream size                              : 8.41 GiB (96%)
Writing library                          : x264 core 164 r3075 66a5bc1
Encoding settings                        : cabac=1 / ref=8 / deblock=1:-3:-3 / analyse=0x3:0x133 / me=umh / subme=9 / psy=1 / psy_rd=1.00:0.00 / mixed_ref=1 / me_range=16 / chroma_me=1 / trellis=2 / 8x8dct=1 / cqm=0 / deadzone=21,11 / fast_pskip=0 / chroma_qp_offset=-2 / threads=22 / lookahead_threads=1 / sliced_threads=0 / nr=0 / decimate=1 / interlaced=0 / bluray_compat=0 / constrained_intra=0 / bframes=3 / b_pyramid=2 / b_adapt=2 / b_bias=0 / direct=3 / weightb=1 / open_gop=0 / weightp=2 / keyint=250 / keyint_min=30 / scenecut=40 / intra_refresh=0 / rc_lookahead=60 / rc=2pass / mbtree=1 / bitrate=5000 / ratetol=1.0 / qcomp=0.60 / qpmin=0 / qpmax=69 / qpstep=4 / cplxblur=20.0 / qblur=0.5 / ip_ratio=1.40 / aq=3:1.00
Default                                  : Yes
Forced                                   : No
Color range                              : Limited
Matrix coefficients                      : BT.709

Audio
ID                                       : 2
Format                                   : AC-3
Format/Info                              : Audio Coding 3
Commercial name                          : Dolby Digital
Codec ID                                 : A_AC3
Duration                                 : 4 h 0 min
Bit rate mode                            : Constant
Bit rate                                 : 192 kb/s
Channel(s)                               : 2 channels
Channel layout                           : L R
Sampling rate                            : 48.0 kHz
Frame rate                               : 31.250 FPS (1536 SPF)
Compression mode                         : Lossy
Stream size                              : 331 MiB (4%)
Language                                 : English
Service kind                             : Complete Main
Default                                  : Yes
Forced                                   : No

Menu
00:00:00.000                             : en:00:00:00.000
00:00:30.130                             : en:00:00:30.130
00:04:10.484                             : en:00:04:10.484
00:20:57.756                             : en:00:20:57.756
00:30:42.908                             : en:00:30:42.908
00:32:26.011                             : en:00:32:26.011
00:53:49.927                             : en:00:53:49.927
01:10:48.878                             : en:01:10:48.878
01:11:44.267                             : en:01:11:44.267
01:18:02.044                             : en:01:18:02.044
01:33:56.898                             : en:01:33:56.898
01:37:44.258                             : en:01:37:44.258
01:50:51.812                             : en:01:50:51.812
02:18:15.187                             : en:02:18:15.187
02:51:01.251                             : en:02:51:01.251
02:59:54.250                             : en:02:59:54.250
03:24:18.246                             : en:03:24:18.246


悠悠MP4_MP4电影下载_WWE:夏日狂潮 2021 WWE.Summerslam.2021.720p.BluRay.x264-FREEMAN 8.74GB


上传的附件:
最新回复 (0)
返回
本站所有资源均收集自互联网,没有提供影片资源存储, 也未参与录制、上传,若本站收录的资源无意侵犯了您的权益, 请联系邮箱:gogoimgs#gmail.com(#[email protected])