[2020] [其他] [剧情] [BD-1080P] 职场心计文学梦/当我成为塞林格 My.Salinger.Year.2020.1080p.BluRay.x264.DTS-FGT 9.18GB

uump4 1月前 345

帖子完整标题:职场心计文学梦/当我成为塞林格 My.Salinger.Year.2020.1080p.BluRay.x264.DTS-FGT 9.18GB

悠悠MP4_MP4电影下载_职场心计文学梦/当我成为塞林格 My.Salinger.Year.2020.1080p.BluRay.x264.DTS-FGT 9.18GB

◎译  名 职场心计文学梦/当我成为塞林格/我的塞林格之年/我的塞林格岁月
◎片  名 My Salinger Year
◎年  代 2020
◎产  地 加拿大,爱尔兰
◎类  别 剧情
◎语  言 英语
◎上映日期 2020-02-20(柏林电影节) / 2021-03-05(美国)
◎豆瓣评分 6.4/10 from 452 users
◎豆瓣链接 https://movie.douban.com/subject/30220620/
◎片  长 101分钟
◎导  演 菲利普·法拉多 Philippe Falardeau
◎编  剧 菲利普·法拉多 Philippe Falardeau
◎主  演 玛格丽特·库里 Margaret Qualley
       西格妮·韦弗 Sigourney Weaver
       道格拉斯·布斯 Douglas Booth
       莎娜·凯斯雷克 Seána Kerslake
       科鲁姆·费奥瑞 Colm Feore
       莱尼·帕克 Leni Parker
       孙晓 Xiao Sun
       加文·德里 Gavin Drea
       西奥多·佩尔兰 Théodore Pellerin
       布莱恩·F·奥博恩 Brian F. O'Byrne
       伊拉娜·盖尔 Elana Gale
       艾伦·大卫 Ellen David
       提姆·波斯特 Tim Post
       亚瑟·霍尔顿 Arthur Holden
       Yanic Truesdale Yanic Truesdale
       西尔维亚·斯图尔特 Sylvia Stewart
       翁德拉·多里安 Ondra Dorian
       马特·霍兰德 Matt Holland

◎标  签 加拿大 | 文艺 | 文学 | 剧情 | 2020 | 传记 | 玛格丽特·库里 | 美国

◎简  介

  故事发生在90年代的纽约,结束研究生学业后,梦想成为作家的乔安娜(玛格丽特·奎利饰)被玛格丽特(西格妮·韦弗饰)雇佣为助手,后者是J·D·塞林格(J.D.Salinger)的文学经纪人,以保守和老派著称。乔安娜白天在一间豪华的木镶板办公室里工作,晚上和她信仰社 会主义的男友在布鲁克林一间破旧的公寓里过夜。她的主要工作内容是处理塞林格大量书迷的邮件。当细细阅读来自世界各地令人心碎的信件时,她不愿意用格式化和没有人情味的回复去搪塞书迷,并冲动地开始带着自己的感情回复邮件。这些邮件既幽默又感人,乔安娜在借用伟大作家的声音说话时,同时探索着属于自己的声音。

Video
ID                                       : 1
Format                                   : AVC
Format/Info                              : Advanced Video Codec
Format profile                           : [email protected]
Format settings                          : CABAC / 4 Ref Frames
Format settings, CABAC                   : Yes
Format settings, Reference frames        : 4 frames
Codec ID                                 : V_MPEG4/ISO/AVC
Duration                                 : 1 h 41 min
Bit rate                                 : 11.5 Mb/s
Width                                    : 1 920 pixels
Height                                   : 1 036 pixels
Display aspect ratio                     : 1.85:1
Frame rate mode                          : Constant
Frame rate                               : 24.000 FPS
Color space                              : YUV
Chroma subsampling                       : 4:2:0
Bit depth                                : 8 bits
Scan type                                : Progressive
Bits/(Pixel*Frame)                       : 0.241
Stream size                              : 8.11 GiB (88%)
Writing library                          : x264 core 148 r2748 97eaef2
Encoding settings                        : cabac=1 / ref=4 / deblock=1:-2:-2 / analyse=0x3:0x113 / me=umh / subme=9 / psy=1 / psy_rd=1.00:0.15 / mixed_ref=1 / me_range=16 / chroma_me=1 / trellis=2 / 8x8dct=1 / cqm=0 / deadzone=21,11 / fast_pskip=1 / chroma_qp_offset=-3 / threads=72 / lookahead_threads=3 / sliced_threads=0 / nr=0 / decimate=1 / interlaced=0 / bluray_compat=0 / constrained_intra=0 / bframes=3 / b_pyramid=2 / b_adapt=1 / b_bias=0 / direct=3 / weightb=1 / open_gop=0 / weightp=2 / keyint=250 / keyint_min=25 / scenecut=40 / intra_refresh=0 / rc_lookahead=50 / rc=2pass / mbtree=1 / bitrate=11500 / ratetol=1.0 / qcomp=0.60 / qpmin=0 / qpmax=69 / qpstep=4 / cplxblur=20.0 / qblur=0.5 / vbv_maxrate=31250 / vbv_bufsize=31250 / nal_hrd=none / filler=0 / ip_ratio=1.40 / aq=1:1.00
Language                                 : English
Default                                  : Yes
Forced                                   : No

Audio
ID                                       : 2
ID in the original source medium         : 4353 (0x1101)
Format                                   : DTS
Format/Info                              : Digital Theater Systems
Codec ID                                 : A_DTS
Duration                                 : 1 h 41 min
Bit rate mode                            : Constant
Bit rate                                 : 1 509 kb/s
Channel(s)                               : 6 channels
Channel layout                           : C L R Ls Rs LFE
Sampling rate                            : 48.0 kHz
Frame rate                               : 93.750 FPS (512 SPF)
Bit depth                                : 16 bits
Compression mode                         : Lossy
Stream size                              : 1.06 GiB (12%)
Title                                    : DTS 5.1
Language                                 : English
Default                                  : No
Forced                                   : No
Original source medium                   : Blu-ray

Text
ID                                       : 3
Format                                   : UTF-8
Codec ID                                 : S_TEXT/UTF8
Codec ID/Info                            : UTF-8 Plain Text
Duration                                 : 1 h 34 min
Bit rate                                 : 66 b/s
Count of elements                        : 1450
Stream size                              : 45.9 KiB (0%)
Language                                 : English
Default                                  : Yes
Forced                                   : No

Menu
00:00:00.000                             : Chapter 01
00:07:29.000                             : Chapter 02
00:16:02.125                             : Chapter 03
00:24:03.416                             : Chapter 04
00:32:46.833                             : Chapter 05
00:41:04.875                             : Chapter 06
00:49:26.958                             : Chapter 07
00:58:38.333                             : Chapter 08
01:09:15.416                             : Chapter 09
01:18:12.333                             : Chapter 10
01:26:45.958                             : Chapter 11
01:32:50.000                             : Chapter 12


悠悠MP4_MP4电影下载_职场心计文学梦/当我成为塞林格 My.Salinger.Year.2020.1080p.BluRay.x264.DTS-FGT 9.18GB悠悠MP4_MP4电影下载_职场心计文学梦/当我成为塞林格 My.Salinger.Year.2020.1080p.BluRay.x264.DTS-FGT 9.18GB


提示:如迅雷下载提示"任务出错"、"因版权无法下载",请尝试【迅雷5】
上传的附件:
最新回复 (0)
返回
本站所有资源均收集自互联网,没有提供影片资源存储, 也未参与录制、上传,若本站收录的资源无意侵犯了您的权益, 请联系邮箱:gogoimgs#gmail.com(#[email protected])