[更早] [欧美] [喜剧] [WEB-1080P] 约会在纽约 Dating.and.New.York.2021.1080p.WEBRip.DD5.1.x264-NOGRP 4.56GB

uump4 3天前 440

帖子完整标题:约会在纽约 Dating.and.New.York.2021.1080p.WEBRip.DD5.1.x264-NOGRP 4.56GB

悠悠MP4_MP4电影下载_约会在纽约 Dating.and.New.York.2021.1080p.WEBRip.DD5.1.x264-NOGRP 4.56GB

◎译  名 约会在纽约/Dating in New York
◎片  名 Dating & New York
◎年  代 2021
◎产  地 美国
◎类  别 喜剧 / 爱情
◎语  言 英语
◎上映日期 2021-06-13(翠贝卡电影节)
◎豆瓣评分 /10 from 0 users
◎豆瓣链接 https://movie.douban.com/subject/35457531/
◎片  长 91分钟
◎主  演 雅布其·杨-怀特 Jaboukie Young-White
       弗兰切丝卡·雷阿莱 Francesca Reale
       布莱恩·穆勒 Brian Muller
       杰瑞·费拉拉 Jerry Ferrara
       苏海娜·四虎 Sohina Sidhu
       阿图罗·卡斯特罗 Arturo Castro
       泰勒·希尔 Taylor Hill
       亚历克斯·莫法特 Alex Moffat
       桑德拉·詹姆斯 Sondra James

◎标  签 爱情 | 美国 | 喜剧 | 美国电影 | 纽约 | 电影 | dongwan | WK

◎简  介

  Once upon a time in the magical kingdom of New York City, a city that doesn't sleep but sleeps around a lot, a land of the best pizza in the world and crowded subways, two single millennials Milo (Jaboukie Young-White) and Wendy (Francesca Reale) find each other through the Meet Cute dating app. After a one-night stand, the magic of New York brings them back together, and they draw up a “Best Friends With Benefits” contract to avoid the pitfalls of a relationship. Will friendship and sex mix without any complications? With the help of Cole the Doorman (Jerry Ferrara) and their friends Hank (Brian Muller) and Jessie (Catherine Cohen) who are also dealing with their own complications of a new relationship, Milo and Wendy just might find what they’re looking for.

Video
ID                                       : 1
Format                                   : AVC
Format/Info                              : Advanced Video Codec
Format profile                           : [email protected]
Format settings                          : CABAC / 4 Ref Frames
Format settings, CABAC                   : Yes
Format settings, Reference frames        : 4 frames
Codec ID                                 : V_MPEG4/ISO/AVC
Duration                                 : 1 h 31 min
Bit rate                                 : 6 760 kb/s
Width                                    : 1 912 pixels
Height                                   : 1 036 pixels
Display aspect ratio                     : 1.85:1
Frame rate mode                          : Constant
Frame rate                               : 23.976 (24000/1001/189150) FPS
Color space                              : YUV
Chroma subsampling                       : 4:2:0
Bit depth                                : 8 bits
Scan type                                : Progressive
Bits/(Pixel*Frame)                       : 0.142
Stream size                              : 4.31 GiB (95%)
Language                                 : English
Default                                  : Yes
Forced                                   : No
Color range                              : Limited
Color primaries                          : BT.709
Transfer characteristics                 : BT.709
Matrix coefficients                      : BT.709

Audio
ID                                       : 2
Format                                   : AC-3
Format/Info                              : Audio Coding 3
Commercial name                          : Dolby Digital
Codec ID                                 : A_AC3
Duration                                 : 1 h 31 min
Bit rate mode                            : Constant
Bit rate                                 : 384 kb/s
Channel(s)                               : 6 channels
Channel layout                           : L R C LFE Ls Rs
Sampling rate                            : 48.0 kHz
Frame rate                               : 31.250 FPS (1536 SPF)
Compression mode                         : Lossy
Stream size                              : 251 MiB (5%)
Title                                    : English
Language                                 : English
Service kind                             : Complete Main
Default                                  : No
Forced                                   : No

Text
ID                                       : 3
Format                                   : UTF-8
Codec ID                                 : S_TEXT/UTF8
Codec ID/Info                            : UTF-8 Plain Text
Duration                                 : 1 h 27 min
Bit rate                                 : 103 b/s
Count of elements                        : 1791
Stream size                              : 66.5 KiB (0%)
Language                                 : English
Default                                  : Yes
Forced                                   : No


悠悠MP4_MP4电影下载_约会在纽约 Dating.and.New.York.2021.1080p.WEBRip.DD5.1.x264-NOGRP 4.56GB悠悠MP4_MP4电影下载_约会在纽约 Dating.and.New.York.2021.1080p.WEBRip.DD5.1.x264-NOGRP 4.56GB悠悠MP4_MP4电影下载_约会在纽约 Dating.and.New.York.2021.1080p.WEBRip.DD5.1.x264-NOGRP 4.56GB


提示:如迅雷下载提示"任务出错"、"因版权无法下载",请尝试【迅雷5】
上传的附件:
最新回复 (0)
返回
本站所有资源均收集自互联网,没有提供影片资源存储, 也未参与录制、上传,若本站收录的资源无意侵犯了您的权益, 请联系邮箱:gogoimgs#gmail.com(#[email protected])