[2011] [欧美] [剧情] [WEB-1080P] 玛格丽特 Margaret.2011.EXTENDED.1080p.WEBRip.x264-RARBG 3.55GB

uump4 6天前 468

帖子完整标题:玛格丽特 Margaret.2011.EXTENDED.1080p.WEBRip.x264-RARBG 3.55GB

悠悠MP4_MP4电影下载_玛格丽特 Margaret.2011.EXTENDED.1080p.WEBRip.x264-RARBG 3.55GB

◎译  名 玛格丽特
◎片  名 Margaret
◎年  代 2011
◎产  地 美国
◎类  别 剧情
◎语  言 英语
◎上映日期 2011-09-30(美国)
◎豆瓣评分 6.3/10 from 1612 users
◎豆瓣链接 https://movie.douban.com/subject/1928196/
◎片  长 150分钟(院线版)
◎导  演 肯尼思·洛纳根 Kenneth Lonergan
◎编  剧 肯尼思·洛纳根 Kenneth Lonergan
◎主  演 安娜·帕奎因 Anna Paquin
       马特·达蒙 Matt Damon
       马克·鲁弗洛 Mark Ruffalo
       珍妮·柏林 Jeannie Berlin
       让·雷诺 Jean Reno
       萨拉·斯蒂尔 Sarah Steele
       基南·卡尔金 Kieran Culkin
       吉恩·史密斯-卡梅隆 J. Smith-Cameron
       艾莉森·珍妮 Allison Janney
       爱德华·M·克拉汉 Edward M. Kelahan
       罗伯特·迈尔斯 Robert Myers
        Valisa Tate
       肯·斯拉迪克 Ken Sladyk
        Ilene Schwartz
        Andrew Hillmedo Jr.
        Joseph O'Keefe
       Sonny Vellozzi Sonny Vellozzi
       希娜·阿卜杜拉 Hina Abdullah
       诺曼·施莱费尔 Norman Schleiffer
        Jill DeMonstoy
       李·米勒 Lee Miller
       肯尼思·洛纳根 Kenneth Lonergan
       杰克·欧康纳 Jake O'Connor
        Franco Bulaon
        Cheryl Patrick
        Joe Wissler
       凯文·卡罗尔 Kevin Carroll
       布丽特妮·安德伍德 Brittany Underwood
       杰西卡·邓菲 Jessica Dunphy
       马特·布什 Matt Bush
       罗丝玛丽·德薇特 Rosemarie DeWitt
       克里斯滕·里特 Krysten Ritter
       奥莉薇·瑟尔比 Olivia Thirlby
       马修·布罗德里克 Matthew Broderick
       小约翰·加拉赫 John Gallagher Jr.
       贝特西·艾顿 Betsy Aidem
       卡尔洛·阿尔班 Carlo Alban
       杰森·潘德格拉芙特 Jason Pendergraft
       Marcus Collins Marcus Collins
       Emily Schweitz Emily Schweitz
       桑迪·德乔治 Sandi DeGeorge
       罗伯特·比齐克 Robert Bizik
       Keith Patterson Keith Patterson
       布拉泽易登道格拉斯 Brother Eden Douglas
       Susan Graham Susan Graham
       蕾妮·弗莱明 Renée Fleming

◎标  签 美国 | MattDamon | 剧情 | 美国电影 | 2011 | 成长 | JeanReno | 电影

◎简  介

  丽莎(安娜·帕奎因 Anna Paquin 饰)是一名17岁的高中生,和大多数高中生一样,虽然处于尴尬的青春期,但丽莎的生活中并没有太大的烦恼和困扰。一次意外中,丽莎被卷入了一场惨烈的交通事故中,一个陌生的女人在事故中身亡。女人的死颠覆了丽莎的世界,她再也无法用曾经的眼光来看待周围的一切了。
  
  为了弥补内心的创伤,丽莎做出了很多的努力,但很快她便发现,所有企图弥补创伤的举动,最终都会带来新的伤痛,唯一的解决方法,就是还原车祸的全部真相。就这样,丽莎展开了她的调查行动,但各种各样的麻烦让她明白,她所作的这一切或许并非正确。

◎获奖情况

  第32届波士顿影评人协会奖 ?(2011)
  最佳影片(提名)
  最佳女配角(提名) 珍妮·柏林
  最佳剧本(提名) 肯尼思·洛纳根
  最佳群像表演(提名)
  
  第24届芝加哥影评人协会奖 ?(2011)
  最佳女主角(提名) 安娜·帕奎因

Video
ID                                       : 1
Format                                   : AVC
Format/Info                              : Advanced Video Codec
Format profile                           : [email protected]
Format settings                          : CABAC / 4 Ref Frames
Format settings, CABAC                   : Yes
Format settings, Reference frames        : 4 frames
Codec ID                                 : avc1
Codec ID/Info                            : Advanced Video Coding
Duration                                 : 3 h 6 min
Bit rate                                 : 2 500 kb/s
Width                                    : 1 920 pixels
Height                                   : 1 036 pixels
Display aspect ratio                     : 1.85:1
Frame rate mode                          : Constant
Frame rate                               : 23.976 (23976/1000/189150) FPS
Color space                              : YUV
Chroma subsampling                       : 4:2:0
Bit depth                                : 8 bits
Scan type                                : Progressive
Bits/(Pixel*Frame)                       : 0.052
Stream size                              : 3.25 GiB (92%)
Writing library                          : x264 core 152 r2851M ba24899
Encoding settings                        : cabac=1 / ref=4 / deblock=1:-1:-1 / analyse=0x3:0x113 / me=umh / subme=9 / psy=1 / psy_rd=1.00:0.15 / mixed_ref=1 / me_range=24 / chroma_me=1 / trellis=2 / 8x8dct=1 / cqm=0 / deadzone=21,11 / fast_pskip=1 / chroma_qp_offset=-3 / threads=16 / lookahead_threads=4 / sliced_threads=0 / nr=0 / decimate=1 / interlaced=0 / bluray_compat=0 / constrained_intra=0 / bframes=3 / b_pyramid=2 / b_adapt=2 / b_bias=0 / direct=3 / weightb=1 / open_gop=0 / weightp=2 / keyint=250 / keyint_min=25 / scenecut=40 / intra_refresh=0 / rc_lookahead=50 / rc=2pass / mbtree=1 / bitrate=2500 / ratetol=1.0 / qcomp=0.60 / qpmin=0 / qpmax=69 / qpstep=4 / cplxblur=20.0 / qblur=0.5 / vbv_maxrate=31250 / vbv_bufsize=31250 / nal_hrd=none / filler=0 / ip_ratio=1.40 / aq=3:1.00
Encoded date                             : UTC 2021-09-12 15:47:01
Tagged date                              : UTC 2021-09-12 15:47:01
Codec configuration box                  : avcC

Audio
ID                                       : 2
Format                                   : AAC LC
Format/Info                              : Advanced Audio Codec Low Complexity
Codec ID                                 : mp4a-40-2
Duration                                 : 3 h 6 min
Bit rate mode                            : Constant
Bit rate                                 : 224 kb/s
Channel(s)                               : 6 channels
Channel layout                           : C L R Ls Rs LFE
Sampling rate                            : 48.0 kHz
Frame rate                               : 46.875 FPS (1024 SPF)
Compression mode                         : Lossy
Stream size                              : 298 MiB (8%)
Language                                 : English
Default                                  : Yes
Alternate group                          : 1
Encoded date                             : UTC 2021-09-12 15:47:01
Tagged date                              : UTC 2021-09-12 15:47:01


悠悠MP4_MP4电影下载_玛格丽特 Margaret.2011.EXTENDED.1080p.WEBRip.x264-RARBG 3.55GB悠悠MP4_MP4电影下载_玛格丽特 Margaret.2011.EXTENDED.1080p.WEBRip.x264-RARBG 3.55GB悠悠MP4_MP4电影下载_玛格丽特 Margaret.2011.EXTENDED.1080p.WEBRip.x264-RARBG 3.55GB


提示:如迅雷下载提示"任务出错"、"因版权无法下载",请尝试【迅雷5】
上传的附件:
最新回复 (0)
返回
本站所有资源均收集自互联网,没有提供影片资源存储, 也未参与录制、上传,若本站收录的资源无意侵犯了您的权益, 请联系邮箱:gogoimgs#gmail.com(#[email protected])