[更早] [欧美] [喜剧] [BD-720P] 然后怎样 How.It.Ends.2021.720p.BluRay.x264-PiGNUS 4.72GB

uump4 3天前 229

帖子完整标题:然后怎样 How.It.Ends.2021.720p.BluRay.x264-PiGNUS 4.72GB

悠悠MP4_MP4电影下载_然后怎样 How.It.Ends.2021.720p.BluRay.x264-PiGNUS 4.72GB

◎译  名 然后怎样
◎片  名 How It Ends
◎年  代 2021
◎产  地 美国
◎类  别 喜剧
◎语  言 英语
◎上映日期 2021-01-29(圣丹斯电影节) / 2021-07-20(美国)
◎豆瓣评分 /10 from 0 users
◎豆瓣链接 https://movie.douban.com/subject/35288795/
◎片  长 82分钟
◎导  演 佐伊·利斯特·琼斯 Zoe Lister Jones / 达瑞尔·韦恩 Daryl Wein
◎编  剧 达瑞尔·韦恩 Daryl Wein / 佐伊·利斯特·琼斯 Zoe Lister Jones
◎主  演 佐伊·利斯特·琼斯 Zoe Lister Jones
       卡莉·史派妮 Cailee Spaeny
       惠特妮·卡明 Whitney Cummings
       陶尼·纽萨姆 Tawny Newsome
       菲恩·伍法德 Finn Wolfhard
       尼克·克罗尔 Nick Kroll
       罗根·马歇尔-格林 Logan Marshall-Green
       鲍比·李 Bobby Lee
       弗莱德·阿米森 Fred Armisen
       格伦·豪尔顿 Glenn Howerton
       布莱德利·惠特福德 Bradley Whitford
       莎伦·凡·艾腾 Sharon Van Etten
       奥利维亚·王尔德 Olivia Wilde
       保罗·当斯 Paul W. Downs
       拉蒙尼·莫里斯 Lamorne Morris

◎标  签 喜剧 | Daryl_Wein | 2021 | 美(加)国电影 | 美国电影 | 美国 | 电影 | 已收录

◎简  介

  On the last day on Earth, one woman goes on a journey through LA to make it to her last party before the world ends, running into an eclectic cast of characters along the way.

Video
ID                                       : 1
Format                                   : AVC
Format/Info                              : Advanced Video Codec
Format profile                           : [email protected]
Format settings                          : CABAC / 8 Ref Frames
Format settings, CABAC                   : Yes
Format settings, Reference frames        : 8 frames
Codec ID                                 : V_MPEG4/ISO/AVC
Duration                                 : 1 h 23 min
Bit rate                                 : 7 474 kb/s
Width                                    : 1 280 pixels
Height                                   : 720 pixels
Display aspect ratio                     : 16:9
Frame rate mode                          : Constant
Frame rate                               : 23.976 (24000/1001/189150) FPS
Color space                              : YUV
Chroma subsampling                       : 4:2:0
Bit depth                                : 8 bits
Scan type                                : Progressive
Bits/(Pixel*Frame)                       : 0.338
Stream size                              : 4.34 GiB (92%)
Writing library                          : x264 core 164 r3065 ae03d92
Encoding settings                        : cabac=1 / ref=8 / deblock=1:-3:-3 / analyse=0x3:0x133 / me=umh / subme=9 / psy=1 / psy_rd=1.00:0.00 / mixed_ref=1 / me_range=16 / chroma_me=1 / trellis=2 / 8x8dct=1 / cqm=0 / deadzone=21,11 / fast_pskip=1 / chroma_qp_offset=-2 / threads=22 / lookahead_threads=1 / sliced_threads=0 / nr=0 / decimate=1 / interlaced=0 / bluray_compat=0 / constrained_intra=0 / bframes=3 / b_pyramid=2 / b_adapt=2 / b_bias=0 / direct=3 / weightb=1 / open_gop=0 / weightp=2 / keyint=250 / keyint_min=23 / scenecut=40 / intra_refresh=0 / rc_lookahead=60 / rc=crf / mbtree=1 / crf=19.8 / qcomp=0.60 / qpmin=0 / qpmax=69 / qpstep=4 / ip_ratio=1.40 / aq=1:1.00
Default                                  : Yes
Forced                                   : No

Audio
ID                                       : 2
Format                                   : AC-3
Format/Info                              : Audio Coding 3
Commercial name                          : Dolby Digital
Codec ID                                 : A_AC3
Duration                                 : 1 h 23 min
Bit rate mode                            : Constant
Bit rate                                 : 640 kb/s
Channel(s)                               : 6 channels
Channel layout                           : L R C LFE Ls Rs
Sampling rate                            : 48.0 kHz
Frame rate                               : 31.250 FPS (1536 SPF)
Compression mode                         : Lossy
Stream size                              : 380 MiB (8%)
Language                                 : English
Service kind                             : Complete Main
Default                                  : Yes
Forced                                   : No

Text
ID                                       : 3
Format                                   : PGS
Muxing mode                              : zlib
Codec ID                                 : S_HDMV/PGS
Codec ID/Info                            : Picture based subtitle format used on BDs/HD-DVDs
Duration                                 : 1 h 20 min
Bit rate                                 : 56.0 kb/s
Count of elements                        : 3562
Stream size                              : 32.1 MiB (1%)
Title                                    : English SDH
Language                                 : English
Default                                  : No
Forced                                   : No

Menu
00:00:00.000                             : Chapter 01
00:10:00.058                             : Chapter 02
00:20:02.785                             : Chapter 03
00:30:03.093                             : Chapter 04
00:40:02.066                             : Chapter 05
00:50:03.626                             : Chapter 06
01:00:02.349                             : Chapter 07
01:10:05.535                             : Chapter 08
01:20:05.509                             : Chapter 09
01:20:41.670                             : Chapter 10
01:23:05.731                             : Chapter 11


悠悠MP4_MP4电影下载_然后怎样 How.It.Ends.2021.720p.BluRay.x264-PiGNUS 4.72GB


提示:如迅雷下载提示"任务出错"、"因版权无法下载",请尝试【迅雷5】
上传的附件:
最新回复 (0)
返回
本站所有资源均收集自互联网,没有提供影片资源存储, 也未参与录制、上传,若本站收录的资源无意侵犯了您的权益, 请联系邮箱:gogoimgs#gmail.com(#[email protected])