[更早] [欧美] [剧情] [BD-1080P] 通道 The.Gateway.2021.1080p.BluRay.x264-PiGNUS 10.54GB

uump4 6天前 398

帖子完整标题:通道 The.Gateway.2021.1080p.BluRay.x264-PiGNUS 10.54GB

悠悠MP4_MP4电影下载_通道 The.Gateway.2021.1080p.BluRay.x264-PiGNUS 10.54GB

◎译  名 通道
◎片  名 The Gateway
◎年  代 2021
◎产  地 美国
◎类  别 剧情 / 惊悚 / 犯罪
◎语  言 英语
◎上映日期 2021-09-03(美国)
◎豆瓣评分 5.3/10 from 91 users
◎豆瓣链接 https://movie.douban.com/subject/33431979/
◎片  长 91分钟
◎导  演 Michele Civetta Michele Civetta
◎编  剧 安德鲁·莱维塔斯 Andrew Levitas / Michele Civetta Michele Civetta
◎主  演 奥立薇娅·玛恩 Olivia Munn
       弗兰克·格里罗 Frank Grillo
       凯斯·大卫 Keith David
       塔恩·曼宁 Taryn Manning
       谢伊·惠格姆 Shea Whigham
       小马克·布恩 Mark Boone Junior
       布鲁斯·邓恩 Bruce Dern
       塔根·伯恩斯 Taegen Burns
       亚历山大·瑞斯 Alexander Wraith
       扎克·艾弗里 Zach Avery
       杰伊·赫农 Jay Hieron

◎标  签 美国 | 犯罪 | 剧情 | 2021 | 暴力社区 | 电影 | SheaWhigham | 其他电影

◎简  介

  弗兰克·格里罗、凯斯·大卫([耐撕侦探])、塔恩·曼宁([女子监狱])、小马克·布恩([混乱之子])加盟谢伊·惠格姆、奥立薇娅·玛恩、布鲁斯·邓恩主演新片[通道](The Gateway,暂译)。米歇尔·西梅塔执导。影片围绕一名热情、严肃的社会工作者展开,他负责照顾一名单身母亲的女儿。

Video
ID                                       : 1
Format                                   : AVC
Format/Info                              : Advanced Video Codec
Format profile                           : [email protected]
Format settings                          : CABAC / 4 Ref Frames
Format settings, CABAC                   : Yes
Format settings, Reference frames        : 4 frames
Codec ID                                 : V_MPEG4/ISO/AVC
Duration                                 : 1 h 31 min
Bit rate                                 : 13.1 Mb/s
Width                                    : 1 920 pixels
Height                                   : 960 pixels
Display aspect ratio                     : 2.000
Frame rate mode                          : Constant
Frame rate                               : 23.976 (24000/1001/189150) FPS
Color space                              : YUV
Chroma subsampling                       : 4:2:0
Bit depth                                : 8 bits
Scan type                                : Progressive
Bits/(Pixel*Frame)                       : 0.297
Stream size                              : 8.37 GiB (79%)
Writing library                          : x264 core 164 r3065 ae03d92
Encoding settings                        : cabac=1 / ref=4 / deblock=1:-3:-3 / analyse=0x3:0x133 / me=umh / subme=9 / psy=1 / psy_rd=1.00:0.00 / mixed_ref=1 / me_range=16 / chroma_me=1 / trellis=2 / 8x8dct=1 / cqm=0 / deadzone=21,11 / fast_pskip=1 / chroma_qp_offset=-2 / threads=30 / lookahead_threads=2 / sliced_threads=0 / nr=0 / decimate=1 / interlaced=0 / bluray_compat=0 / constrained_intra=0 / bframes=3 / b_pyramid=2 / b_adapt=2 / b_bias=0 / direct=3 / weightb=1 / open_gop=0 / weightp=2 / keyint=250 / keyint_min=23 / scenecut=40 / intra_refresh=0 / rc_lookahead=60 / rc=crf / mbtree=1 / crf=16.0 / qcomp=0.60 / qpmin=0 / qpmax=69 / qpstep=4 / ip_ratio=1.40 / aq=1:1.00
Default                                  : Yes
Forced                                   : No

Audio
ID                                       : 2
Format                                   : DTS XLL
Format/Info                              : Digital Theater Systems
Commercial name                          : DTS-HD Master Audio
Codec ID                                 : A_DTS
Duration                                 : 1 h 31 min
Bit rate mode                            : Variable
Bit rate                                 : 3 349 kb/s
Channel(s)                               : 6 channels
Channel layout                           : C L R Ls Rs LFE
Sampling rate                            : 48.0 kHz
Frame rate                               : 93.750 FPS (512 SPF)
Bit depth                                : 24 bits
Compression mode                         : Lossless
Stream size                              : 2.13 GiB (20%)
Language                                 : English
Default                                  : Yes
Forced                                   : No

Text #1
ID                                       : 3
Format                                   : PGS
Muxing mode                              : zlib
Codec ID                                 : S_HDMV/PGS
Codec ID/Info                            : Picture based subtitle format used on BDs/HD-DVDs
Duration                                 : 1 h 27 min
Bit rate                                 : 39.4 kb/s
Count of elements                        : 2456
Stream size                              : 24.7 MiB (0%)
Title                                    : English SDH
Language                                 : English
Default                                  : No
Forced                                   : No

Text #2
ID                                       : 4
Format                                   : PGS
Muxing mode                              : zlib
Codec ID                                 : S_HDMV/PGS
Codec ID/Info                            : Picture based subtitle format used on BDs/HD-DVDs
Duration                                 : 1 h 29 min
Bit rate                                 : 30.7 kb/s
Count of elements                        : 2084
Stream size                              : 19.7 MiB (0%)
Title                                    : Spanish
Language                                 : Spanish
Default                                  : No
Forced                                   : No

Text #3
ID                                       : 5
Format                                   : PGS
Muxing mode                              : zlib
Codec ID                                 : S_HDMV/PGS
Codec ID/Info                            : Picture based subtitle format used on BDs/HD-DVDs
Duration                                 : 1 h 26 min
Bit rate                                 : 28.2 kb/s
Count of elements                        : 2116
Stream size                              : 17.5 MiB (0%)
Title                                    : French
Language                                 : French
Default                                  : No
Forced                                   : No

Menu
00:00:00.000                             : Chapter 01
00:05:06.806                             : Chapter 02
00:10:32.549                             : Chapter 03
00:15:58.291                             : Chapter 04
00:21:08.350                             : Chapter 05
00:26:30.672                             : Chapter 06
00:32:06.716                             : Chapter 07
00:38:28.848                             : Chapter 08
00:44:24.203                             : Chapter 09
00:49:47.860                             : Chapter 10
00:55:15.646                             : Chapter 11
01:01:26.141                             : Chapter 12
01:06:26.608                             : Chapter 13
01:12:10.910                             : Chapter 14
01:20:53.932                             : Chapter 15
01:24:00.327                             : Chapter 16
01:31:15.261                             : Chapter 17


悠悠MP4_MP4电影下载_通道 The.Gateway.2021.1080p.BluRay.x264-PiGNUS 10.54GB


提示:如迅雷下载提示"任务出错"、"因版权无法下载",请尝试【迅雷5】
上传的附件:
最新回复 (0)
返回
本站所有资源均收集自互联网,没有提供影片资源存储, 也未参与录制、上传,若本站收录的资源无意侵犯了您的权益, 请联系邮箱:gogoimgs#gmail.com(#[email protected])