[更早] [欧美] [喜剧] [BD-1080P] 天堂里的烦恼 Trouble.in.Paradise.1932.1080p.BluRay.x264.FLAC.2.0-HANDJOB 7.07GB

uump4 6天前 204

帖子完整标题:天堂里的烦恼 Trouble.in.Paradise.1932.1080p.BluRay.x264.FLAC.2.0-HANDJOB 7.07GB

悠悠MP4_MP4电影下载_天堂里的烦恼 Trouble.in.Paradise.1932.1080p.BluRay.x264.FLAC.2.0-HANDJOB 7.07GB

◎译  名 天堂里的烦恼/The Golden Widow/天堂艳史(港)/天堂陷阱/真恋假爱
◎片  名 Trouble in Paradise
◎年  代 1932
◎产  地 美国
◎类  别 喜剧 / 爱情 / 犯罪
◎语  言 英语,意大利语,俄语,西班牙语,德语
◎上映日期 1932-10-21
◎豆瓣评分 8.2/10 from 3128 users
◎豆瓣链接 https://movie.douban.com/subject/1294746/
◎片  长 83分钟
◎导  演 恩斯特·刘别谦 Ernst Lubitsch
◎编  剧 山姆森·雷佛森 Samson Raphaelson
◎主  演 米利亚姆·霍普金斯 Miriam Hopkins
       凯·弗朗西斯 Kay Francis
       赫伯特·马歇尔 Herbert Marshall
       查尔斯·拉格尔斯 Charles Ruggles
       爱德华·艾沃瑞特·霍顿 Edward Everett Horton
       内拉·沃克 Nella Walker
       C.奥布雷·史密斯 C. Aubrey Smith
       Robert Greig Robert Greig

◎标  签 美国 | 刘别谦 | 喜剧 | 爱情 | 1930s | 1932 | 美国电影 | 恩斯特·刘别谦

◎简  介

  玛丽埃特(凯·弗朗西斯 Kay Francis 饰)是个腰缠万贯作风情妇的漂亮寡妇,经营着一间公司。一次偶然中,她和一个名叫里瓦尔(赫伯特·马歇尔 Herbert Marshall 饰)的男人相识了。里瓦尔英俊潇洒风流倜傥,玛丽埃特很快就被他的魅力所征服,雇佣他成为了自己的私人秘书,这正是里瓦尔所梦寐以求的。
  
  原来,里瓦尔系化名,这个风度翩翩的男人的真实身份是一名国际大盗,他和曾经的情人莉莉(米利亚姆·霍普金斯 Miriam Hopkins 饰)联手,企图将玛丽埃特的财产据为己有。公司董事长阿道夫(C·奥布雷·史密斯 C. Aubrey Smith 饰)察觉了里瓦尔的阴谋并告诉了玛丽埃特,可玛丽埃特并不相信他的忠告,里瓦尔的阴谋眼看就要得逞。

Video
ID                                       : 1
Format                                   : AVC
Format/Info                              : Advanced Video Codec
Format profile                           : [email protected]
Format settings                          : CABAC / 5 Ref Frames
Format settings, CABAC                   : Yes
Format settings, Reference frames        : 5 frames
Codec ID                                 : V_MPEG4/ISO/AVC
Duration                                 : 1 h 22 min
Bit rate                                 : 11.8 Mb/s
Width                                    : 1 452 pixels
Height                                   : 1 080 pixels
Display aspect ratio                     : 4:3
Frame rate mode                          : Constant
Frame rate                               : 23.976 (24000/1001/189150) FPS
Color space                              : YUV
Chroma subsampling                       : 4:2:0
Bit depth                                : 8 bits
Scan type                                : Progressive
Bits/(Pixel*Frame)                       : 0.315
Stream size                              : 6.82 GiB (97%)
Writing library                          : x264 core 163 r3059 b684ebe0
Encoding settings                        : cabac=1 / ref=5 / deblock=1:-3:-3 / analyse=0x3:0x133 / me=umh / subme=10 / psy=1 / psy_rd=1.00:0.00 / mixed_ref=1 / me_range=32 / chroma_me=1 / trellis=2 / 8x8dct=1 / cqm=0 / deadzone=21,11 / fast_pskip=0 / chroma_qp_offset=-2 / threads=34 / lookahead_threads=8 / sliced_threads=0 / nr=0 / decimate=0 / interlaced=0 / bluray_compat=0 / constrained_intra=0 / bframes=16 / b_pyramid=2 / b_adapt=2 / b_bias=0 / direct=3 / weightb=1 / open_gop=0 / weightp=2 / keyint=240 / keyint_min=24 / scenecut=40 / intra_refresh=0 / rc_lookahead=60 / rc=crf / mbtree=0 / crf=21.0 / qcomp=0.70 / qpmin=0 / qpmax=69 / qpstep=4 / vbv_maxrate=62500 / vbv_bufsize=78125 / crf_max=0.0 / nal_hrd=none / filler=0 / ip_ratio=1.30 / pb_ratio=1.20 / aq=3:0.70
Default                                  : Yes
Forced                                   : No
Color range                              : Limited
Color primaries                          : BT.709
Transfer characteristics                 : BT.709
Matrix coefficients                      : BT.709

Audio #1
ID                                       : 2
Format                                   : FLAC
Format/Info                              : Free Lossless Audio Codec
Codec ID                                 : A_FLAC
Duration                                 : 1 h 22 min
Bit rate mode                            : Variable
Bit rate                                 : 343 kb/s
Channel(s)                               : 2 channels
Sampling rate                            : 48.0 kHz
Frame rate                               : 11.719 FPS (4096 SPF)
Bit depth                                : 16 bits
Compression mode                         : Lossless
Stream size                              : 202 MiB (3%)
Writing library                          : libFLAC 1.2.1 (UTC 2007-09-17)
Language                                 : English
Default                                  : Yes
Forced                                   : No

Audio #2
ID                                       : 3
Format                                   : AAC LC
Format/Info                              : Advanced Audio Codec Low Complexity
Codec ID                                 : A_AAC-2
Duration                                 : 1 h 22 min
Bit rate                                 : 66.2 kb/s
Channel(s)                               : 1 channel
Channel layout                           : C
Sampling rate                            : 48.0 kHz
Frame rate                               : 46.875 FPS (1024 SPF)
Compression mode                         : Lossy
Stream size                              : 39.8 MiB (1%)
Title                                    : Commentary with Lubitsch biographer Scott Eyman
Language                                 : English
Default                                  : No
Forced                                   : No

Text #1
ID                                       : 4
Format                                   : UTF-8
Codec ID                                 : S_TEXT/UTF8
Codec ID/Info                            : UTF-8 Plain Text
Duration                                 : 1 h 21 min
Bit rate                                 : 60 b/s
Count of elements                        : 1055
Stream size                              : 36.1 KiB (0%)
Language                                 : English
Default                                  : No
Forced                                   : No

Text #2
ID                                       : 5
Format                                   : UTF-8
Codec ID                                 : S_TEXT/UTF8
Codec ID/Info                            : UTF-8 Plain Text
Duration                                 : 1 h 21 min
Bit rate                                 : 63 b/s
Count of elements                        : 1118
Stream size                              : 37.7 KiB (0%)
Title                                    : Hard of Hearing
Language                                 : English
Default                                  : No
Forced                                   : No

Text #3
ID                                       : 6
Format                                   : PGS
Muxing mode                              : zlib
Codec ID                                 : S_HDMV/PGS
Codec ID/Info                            : Picture based subtitle format used on BDs/HD-DVDs
Duration                                 : 1 h 21 min
Bit rate                                 : 41.0 kb/s
Count of elements                        : 2031
Stream size                              : 23.9 MiB (0%)
Language                                 : Spanish
Default                                  : No
Forced                                   : No

Menu
00:00:00.000                             : :Chapter 1
00:06:03.697                             : :Chapter 2
00:12:25.870                             : :Chapter 3
00:20:35.109                             : :Chapter 4
00:27:41.034                             : :Chapter 5
00:34:18.014                             : :Chapter 6
00:40:18.124                             : :Chapter 7
00:47:10.786                             : :Chapter 8
00:54:26.597                             : :Chapter 9
01:01:24.014                             : :Chapter 10
01:08:51.961                             : :Chapter 11
01:17:05.663                             : :Chapter 12


悠悠MP4_MP4电影下载_天堂里的烦恼 Trouble.in.Paradise.1932.1080p.BluRay.x264.FLAC.2.0-HANDJOB 7.07GB悠悠MP4_MP4电影下载_天堂里的烦恼 Trouble.in.Paradise.1932.1080p.BluRay.x264.FLAC.2.0-HANDJOB 7.07GB悠悠MP4_MP4电影下载_天堂里的烦恼 Trouble.in.Paradise.1932.1080p.BluRay.x264.FLAC.2.0-HANDJOB 7.07GB


提示:如迅雷下载提示"任务出错"、"因版权无法下载",请尝试【迅雷5】
上传的附件:
最新回复 (0)
返回
本站所有资源均收集自互联网,没有提供影片资源存储, 也未参与录制、上传,若本站收录的资源无意侵犯了您的权益, 请联系邮箱:gogoimgs#gmail.com(#[email protected])