[更早] [欧美] [喜剧] [WEB-1080P] 曼森兄弟午夜僵尸大屠杀 The.Manson.Brothers.Midnight.Zombie.Massacre.2021.1080p.WEBRip.DD5.1

uump4 7天前 524

帖子完整标题:曼森兄弟午夜僵尸大屠杀 The.Manson.Brothers.Midnight.Zombie.Massacre.2021.1080p.WEBRip.DD5.1.x264-NOGRP 6.70GB

悠悠MP4_MP4电影下载_曼森兄弟午夜僵尸大屠杀 The.Manson.Brothers.Midnight.Zombie.Massacre.2021.1080p.WEBRip.DD5.1

◎译  名 曼森兄弟午夜僵尸大屠杀
◎片  名 The Manson Brothers Midnight Zombie Massacre
◎年  代 2021
◎产  地 美国
◎类  别 喜剧 / 恐怖
◎语  言 英语
◎上映日期 2021-09-10(美国)
◎豆瓣评分 /10 from 0 users
◎豆瓣链接 https://movie.douban.com/subject/35555780/
◎导  演 马克斯·马蒂尼 Max Martini
◎主  演 马克斯·马蒂尼 Max Martini

◎标  签 WK

◎简  介

  After being relegated, the two fighting brothers signed up for a new game. But they didn't know that they need to stay in an arena to fight zombies.

Video
ID                                       : 1
Format                                   : AVC
Format/Info                              : Advanced Video Codec
Format profile                           : [email protected]
Format settings                          : CABAC / 4 Ref Frames
Format settings, CABAC                   : Yes
Format settings, Reference frames        : 4 frames
Codec ID                                 : V_MPEG4/ISO/AVC
Duration                                 : 1 h 32 min
Bit rate                                 : 9 941 kb/s
Width                                    : 1 920 pixels
Height                                   : 1 080 pixels
Display aspect ratio                     : 16:9
Frame rate mode                          : Constant
Frame rate                               : 23.976 (24000/1001/189150) FPS
Color space                              : YUV
Chroma subsampling                       : 4:2:0
Bit depth                                : 8 bits
Scan type                                : Progressive
Bits/(Pixel*Frame)                       : 0.200
Stream size                              : 6.45 GiB (96%)
Language                                 : English
Default                                  : Yes
Forced                                   : No
Color range                              : Limited
Color primaries                          : BT.709
Transfer characteristics                 : BT.709
Matrix coefficients                      : BT.709

Audio
ID                                       : 2
Format                                   : AC-3
Format/Info                              : Audio Coding 3
Commercial name                          : Dolby Digital
Codec ID                                 : A_AC3
Duration                                 : 1 h 32 min
Bit rate mode                            : Constant
Bit rate                                 : 384 kb/s
Channel(s)                               : 6 channels
Channel layout                           : L R C LFE Ls Rs
Sampling rate                            : 48.0 kHz
Frame rate                               : 31.250 FPS (1536 SPF)
Compression mode                         : Lossy
Stream size                              : 255 MiB (4%)
Title                                    : English
Language                                 : English
Service kind                             : Complete Main
Default                                  : No
Forced                                   : No

Text
ID                                       : 3
Format                                   : UTF-8
Codec ID                                 : S_TEXT/UTF8
Codec ID/Info                            : UTF-8 Plain Text
Duration                                 : 1 h 31 min
Bit rate                                 : 88 b/s
Count of elements                        : 1906
Stream size                              : 59.3 KiB (0%)
Language                                 : English
Default                                  : Yes
Forced                                   : No


悠悠MP4_MP4电影下载_曼森兄弟午夜僵尸大屠杀 The.Manson.Brothers.Midnight.Zombie.Massacre.2021.1080p.WEBRip.DD5.1悠悠MP4_MP4电影下载_曼森兄弟午夜僵尸大屠杀 The.Manson.Brothers.Midnight.Zombie.Massacre.2021.1080p.WEBRip.DD5.1


提示:如迅雷下载提示"任务出错"、"因版权无法下载",请尝试【迅雷5】
上传的附件:
最新回复 (0)
返回
本站所有资源均收集自互联网,没有提供影片资源存储, 也未参与录制、上传,若本站收录的资源无意侵犯了您的权益, 请联系邮箱:gogoimgs#gmail.com(#[email protected])