[更早] [欧美] [喜剧] [BD-Remux] 然后怎样 How.It.Ends.2021.1080p.BluRay.REMUX.AVC.DTS-HD.MA.5.1-FGT 18.51GB

uump4 7天前 276

帖子完整标题:然后怎样 How.It.Ends.2021.1080p.BluRay.REMUX.AVC.DTS-HD.MA.5.1-FGT 18.51GB

悠悠MP4_MP4电影下载_然后怎样 How.It.Ends.2021.1080p.BluRay.REMUX.AVC.DTS-HD.MA.5.1-FGT 18.51GB

◎译  名 然后怎样
◎片  名 How It Ends
◎年  代 2021
◎产  地 美国
◎类  别 喜剧
◎语  言 英语
◎上映日期 2021-01-29(圣丹斯电影节) / 2021-07-20(美国)
◎豆瓣评分 /10 from 0 users
◎豆瓣链接 https://movie.douban.com/subject/35288795/
◎片  长 82分钟
◎导  演 佐伊·利斯特·琼斯 Zoe Lister Jones / 达瑞尔·韦恩 Daryl Wein
◎编  剧 达瑞尔·韦恩 Daryl Wein / 佐伊·利斯特·琼斯 Zoe Lister Jones
◎主  演 佐伊·利斯特·琼斯 Zoe Lister Jones
       卡莉·史派妮 Cailee Spaeny
       惠特妮·卡明 Whitney Cummings
       陶尼·纽萨姆 Tawny Newsome
       菲恩·伍法德 Finn Wolfhard
       尼克·克罗尔 Nick Kroll
       罗根·马歇尔-格林 Logan Marshall-Green
       鲍比·李 Bobby Lee
       弗莱德·阿米森 Fred Armisen
       格伦·豪尔顿 Glenn Howerton
       布莱德利·惠特福德 Bradley Whitford
       莎伦·凡·艾腾 Sharon Van Etten
       奥利维亚·王尔德 Olivia Wilde
       保罗·当斯 Paul W. Downs
       拉蒙尼·莫里斯 Lamorne Morris

◎标  签 喜剧 | Daryl_Wein | 2021 | 美(加)国电影 | 美国电影 | 美国 | 电影 | 已收录

◎简  介

  On the last day on Earth, one woman goes on a journey through LA to make it to her last party before the world ends, running into an eclectic cast of characters along the way.

Video
ID                                       : 1
ID in the original source medium         : 4113 (0x1011)
Format                                   : AVC
Format/Info                              : Advanced Video Codec
Format profile                           : [email protected]
Format settings                          : CABAC / 2 Ref Frames
Format settings, CABAC                   : Yes
Format settings, Reference frames        : 2 frames
Format settings, GOP                     : M=1, N=5
Codec ID                                 : V_MPEG4/ISO/AVC
Duration                                 : 1 h 23 min
Bit rate mode                            : Variable
Bit rate                                 : 28.3 Mb/s
Maximum bit rate                         : 38.0 Mb/s
Width                                    : 1 920 pixels
Height                                   : 1 080 pixels
Display aspect ratio                     : 16:9
Frame rate mode                          : Constant
Frame rate                               : 23.976 (24000/1001/189150) FPS
Color space                              : YUV
Chroma subsampling                       : 4:2:0
Bit depth                                : 8 bits
Scan type                                : Progressive
Bits/(Pixel*Frame)                       : 0.569
Stream size                              : 16.4 GiB (89%)
Language                                 : English
Default                                  : No
Forced                                   : No
Original source medium                   : Blu-ray

Audio
ID                                       : 2
ID in the original source medium         : 4352 (0x1100)
Format                                   : DTS XLL
Format/Info                              : Digital Theater Systems
Commercial name                          : DTS-HD Master Audio
Codec ID                                 : A_DTS
Duration                                 : 1 h 23 min
Bit rate mode                            : Variable
Bit rate                                 : 3 586 kb/s
Channel(s)                               : 6 channels
Channel layout                           : C L R Ls Rs LFE
Sampling rate                            : 48.0 kHz
Frame rate                               : 93.750 FPS (512 SPF)
Bit depth                                : 24 bits
Compression mode                         : Lossless
Stream size                              : 2.08 GiB (11%)
Title                                    : DTS-HD MA 5.1
Language                                 : English
Default                                  : Yes
Forced                                   : No
Original source medium                   : Blu-ray

Text #1
ID                                       : 3
Format                                   : UTF-8
Codec ID                                 : S_TEXT/UTF8
Codec ID/Info                            : UTF-8 Plain Text
Duration                                 : 1 h 18 min
Bit rate                                 : 84 b/s
Count of elements                        : 1689
Stream size                              : 48.8 KiB (0%)
Title                                    : SRT
Language                                 : English
Default                                  : Yes
Forced                                   : No

Text #2
ID                                       : 4
ID in the original source medium         : 4608 (0x1200)
Format                                   : PGS
Muxing mode                              : zlib
Codec ID                                 : S_HDMV/PGS
Codec ID/Info                            : Picture based subtitle format used on BDs/HD-DVDs
Duration                                 : 1 h 20 min
Bit rate                                 : 56.0 kb/s
Count of elements                        : 3562
Stream size                              : 32.1 MiB (0%)
Language                                 : English
Default                                  : No
Forced                                   : No
Original source medium                   : Blu-ray

Menu
00:00:00.000                             : Chapter 01
00:10:00.057                             : Chapter 02
00:20:02.784                             : Chapter 03
00:30:03.092                             : Chapter 04
00:40:02.066                             : Chapter 05
00:50:03.625                             : Chapter 06
01:00:02.348                             : Chapter 07
01:10:05.534                             : Chapter 08
01:20:05.509                             : Chapter 09
01:20:41.461                             : Chapter 10


悠悠MP4_MP4电影下载_然后怎样 How.It.Ends.2021.1080p.BluRay.REMUX.AVC.DTS-HD.MA.5.1-FGT 18.51GB


提示:如迅雷下载提示"任务出错"、"因版权无法下载",请尝试【迅雷5】
上传的附件:
最新回复 (0)
返回
本站所有资源均收集自互联网,没有提供影片资源存储, 也未参与录制、上传,若本站收录的资源无意侵犯了您的权益, 请联系邮箱:gogoimgs#gmail.com(#[email protected])