[更早] [欧美] [喜剧] [BD-1080P] 庄园夫人/女领主 Lady.of.the.Manor.2021.1080p.BluRay.x264.DTS-MT 16.47GB

uump4 8天前 543

帖子完整标题:庄园夫人/女领主 Lady.of.the.Manor.2021.1080p.BluRay.x264.DTS-MT 16.47GB

悠悠MP4_MP4电影下载_庄园夫人/女领主 Lady.of.the.Manor.2021.1080p.BluRay.x264.DTS-MT 16.47GB

◎译  名 庄园夫人/女领主
◎片  名 Lady of the Manor
◎年  代 2021
◎产  地 美国
◎类  别 喜剧
◎语  言 英语
◎上映日期 2021-09-17(美国)
◎豆瓣评分 /10 from 0 users
◎豆瓣链接 https://movie.douban.com/subject/35072572/
◎导  演 贾斯汀·朗 Justin Long /  Christian Long
◎编  剧 贾斯汀·朗 Justin Long /  Christian Long
◎主  演 梅兰妮·林斯基 Melanie Lynskey
       朱迪·格雷尔 Judy Greer
       贾斯汀·朗 Justin Long
       瑞恩·菲利普 Ryan Phillippe
       路易斯·古兹曼 Luis Guzmán
       帕特里克·杜菲 Patrick Duffy

◎简  介

  An aimless ne'er-do-well becomes a tour guide in a historic estate and winds up befriending the manor's resident ghost.

Video
ID                                       : 1
Format                                   : AVC
Format/Info                              : Advanced Video Codec
Format profile                           : [email protected]
Format settings                          : CABAC / 4 Ref Frames
Format settings, CABAC                   : Yes
Format settings, Reference frames        : 4 frames
Codec ID                                 : V_MPEG4/ISO/AVC
Duration                                 : 1 h 36 min
Bit rate                                 : 22.9 Mb/s
Width                                    : 1 920 pixels
Height                                   : 1 038 pixels
Display aspect ratio                     : 1.85:1
Frame rate mode                          : Constant
Frame rate                               : 23.976 (24000/1001/189150) FPS
Color space                              : YUV
Chroma subsampling                       : 4:2:0
Bit depth                                : 8 bits
Scan type                                : Progressive
Bits/(Pixel*Frame)                       : 0.479
Stream size                              : 15.5 GiB (94%)
Writing library                          : x264 core 157 r2938 2b00a84 [email protected] Mod
Encoding settings                        : cabac=1 / ref=4 / deblock=1:-3:-3 / analyse=0x3:0x133 / me=umh / subme=10 / psy=1 / psy_rd=1.05:0.00 / mixed_ref=1 / me_range=32 / chroma_me=1 / trellis=2 / 8x8dct=1 / cqm=0 / deadzone=21,11 / fast_pskip=0 / chroma_qp_offset=-2 / threads=12 / lookahead_threads=2 / sliced_threads=0 / nr=0 / decimate=0 / interlaced=0 / bluray_compat=0 / constrained_intra=0 / bframes=8 / b_pyramid=2 / b_adapt=2 / b_bias=0 / direct=3 / weightb=1 / open_gop=0 / weightp=2 / keyint=250 / keyint_min=24 / scenecut=40 / intra_refresh=0 / rc_lookahead=250 / rc=crf / mbtree=0 / crf=16.8 / qcomp=0.60 / qpmin=0 / qpmax=69 / qpstep=4 / vbv_maxrate=62500 / vbv_bufsize=78125 / crf_max=0.0 / nal_hrd=none / filler=0 / ip_ratio=1.30 / pb_ratio=1.20 / aq=3:0.80
Language                                 : English
Default                                  : Yes
Forced                                   : No
Color range                              : Limited
Color primaries                          : BT.709
Matrix coefficients                      : BT.709

Audio
ID                                       : 2
Format                                   : DTS
Format/Info                              : Digital Theater Systems
Codec ID                                 : A_DTS
Duration                                 : 1 h 36 min
Bit rate mode                            : Constant
Bit rate                                 : 1 509 kb/s
Channel(s)                               : 6 channels
Channel layout                           : C L R Ls Rs LFE
Sampling rate                            : 48.0 kHz
Frame rate                               : 93.750 FPS (512 SPF)
Bit depth                                : 24 bits
Compression mode                         : Lossy
Stream size                              : 1.02 GiB (6%)
Language                                 : English
Default                                  : Yes
Forced                                   : No

Text
ID                                       : 3
Format                                   : UTF-8
Codec ID                                 : S_TEXT/UTF8
Codec ID/Info                            : UTF-8 Plain Text
Duration                                 : 1 h 35 min
Bit rate                                 : 82 b/s
Count of elements                        : 1619
Stream size                              : 57.6 KiB (0%)
Title                                    : SRT
Language                                 : English
Default                                  : Yes
Forced                                   : No

Menu
00:00:00.000                             : Chapter 01
00:06:59.252                             : Chapter 02
00:12:20.573                             : Chapter 03
00:17:52.863                             : Chapter 04
00:22:24.260                             : Chapter 05
00:29:55.168                             : Chapter 06
00:32:31.700                             : Chapter 07
00:39:46.509                             : Chapter 08
00:47:05.823                             : Chapter 09
00:51:21.495                             : Chapter 10
00:56:30.178                             : Chapter 11
01:01:58.423                             : Chapter 12
01:08:24.767                             : Chapter 13
01:12:58.249                             : Chapter 14
01:17:55.129                             : Chapter 15
01:29:52.262                             : Chapter 16


悠悠MP4_MP4电影下载_庄园夫人/女领主 Lady.of.the.Manor.2021.1080p.BluRay.x264.DTS-MT 16.47GB悠悠MP4_MP4电影下载_庄园夫人/女领主 Lady.of.the.Manor.2021.1080p.BluRay.x264.DTS-MT 16.47GB悠悠MP4_MP4电影下载_庄园夫人/女领主 Lady.of.the.Manor.2021.1080p.BluRay.x264.DTS-MT 16.47GB


提示:如迅雷下载提示"任务出错"、"因版权无法下载",请尝试【迅雷5】
上传的附件:
最新回复 (0)
返回
本站所有资源均收集自互联网,没有提供影片资源存储, 也未参与录制、上传,若本站收录的资源无意侵犯了您的权益, 请联系邮箱:gogoimgs#gmail.com(#[email protected])