[更早] [欧美] [喜剧] [BD-720P] 拜见布莱克一家2:邻家有鬼 The.House.Next.Door.2021.720p.BluRay.x264.DTS-MT 6.03GB

uump4 1月前 315

帖子完整标题:拜见布莱克一家2:邻家有鬼 The.House.Next.Door.2021.720p.BluRay.x264.DTS-MT 6.03GB



◎译  名 拜见布莱克一家2:邻家有鬼/Meet The Blacks 2
◎片  名 The House Next Door
◎年  代 2021
◎产  地 美国
◎类  别 喜剧 / 动作 / 恐怖
◎语  言 英语
◎上映日期 2021-06-11(美国)
◎豆瓣评分 /10 from 0 users
◎豆瓣链接 https://movie.douban.com/subject/30257377/
◎片  长 97分钟
◎导  演 德翁·泰勒 Deon Taylor
◎主  演 祖蕾·亨奥 Zulay Henao
       布莱莎·韦伯 Bresha Webb
       迈克·艾普斯 Mike Epps
       安德鲁·巴切勒 Andrew Bachelor
       卡特·威廉姆斯 Katt Williams
       泰里恩·特纳 Tyrin Turner
       小蒂姆·约翰逊 Tim Johnson Jr.
       迈克尔·布莱克森 Michael Blackson
       小杜瓦尔 Lil Duval
       沙希德·伍兹 Shaheed K. Woods

◎标  签 喜剧 | 恐怖 | 美国电影 | 美国 | 祖蕾·亨奥 | 布莱莎·韦伯 | 奇幻 | 2021美国

◎简  介

  When best selling author Carl Black moves his family back to his childhood home, he must team up with oddball neighbors to do battle with a pimp, who may or may not be an actual vampire.

Video
ID                                       : 1
Format                                   : AVC
Format/Info                              : Advanced Video Codec
Format profile                           : [email protected]
Format settings                          : CABAC / 12 Ref Frames
Format settings, CABAC                   : Yes
Format settings, Reference frames        : 12 frames
Codec ID                                 : V_MPEG4/ISO/AVC
Duration                                 : 1 h 37 min
Bit rate                                 : 7 360 kb/s
Width                                    : 1 280 pixels
Height                                   : 536 pixels
Display aspect ratio                     : 2.40:1
Frame rate mode                          : Constant
Frame rate                               : 23.976 (24000/1001/189150) FPS
Color space                              : YUV
Chroma subsampling                       : 4:2:0
Bit depth                                : 8 bits
Scan type                                : Progressive
Bits/(Pixel*Frame)                       : 0.447
Stream size                              : 5.00 GiB (83%)
Writing library                          : x264 core 157 r2938 2b00a84 [email protected] Mod
Encoding settings                        : cabac=1 / ref=12 / deblock=1:-3:-3 / analyse=0x3:0x133 / me=umh / subme=10 / psy=1 / psy_rd=1.05:0.00 / mixed_ref=1 / me_range=32 / chroma_me=1 / trellis=2 / 8x8dct=1 / cqm=0 / deadzone=21,11 / fast_pskip=0 / chroma_qp_offset=-2 / threads=12 / lookahead_threads=2 / sliced_threads=0 / nr=0 / decimate=0 / interlaced=0 / bluray_compat=0 / constrained_intra=0 / bframes=8 / b_pyramid=2 / b_adapt=2 / b_bias=0 / direct=3 / weightb=1 / open_gop=0 / weightp=2 / keyint=250 / keyint_min=24 / scenecut=40 / intra_refresh=0 / rc_lookahead=250 / rc=crf / mbtree=0 / crf=16.8 / qcomp=0.60 / qpmin=0 / qpmax=69 / qpstep=4 / vbv_maxrate=62500 / vbv_bufsize=78125 / crf_max=0.0 / nal_hrd=none / filler=0 / ip_ratio=1.30 / pb_ratio=1.20 / aq=3:0.80
Language                                 : English
Default                                  : Yes
Forced                                   : No
Color range                              : Limited
Color primaries                          : BT.709
Matrix coefficients                      : BT.709

Audio
ID                                       : 2
Format                                   : DTS
Format/Info                              : Digital Theater Systems
Codec ID                                 : A_DTS
Duration                                 : 1 h 37 min
Bit rate mode                            : Constant
Bit rate                                 : 1 509 kb/s
Channel(s)                               : 6 channels
Channel layout                           : C L R Ls Rs LFE
Sampling rate                            : 48.0 kHz
Frame rate                               : 93.750 FPS (512 SPF)
Bit depth                                : 24 bits
Compression mode                         : Lossy
Stream size                              : 1.03 GiB (17%)
Default                                  : Yes
Forced                                   : No

Text
ID                                       : 3
Format                                   : UTF-8
Codec ID                                 : S_TEXT/UTF8
Codec ID/Info                            : UTF-8 Plain Text
Duration                                 : 1 h 34 min
Bit rate                                 : 93 b/s
Count of elements                        : 1813
Stream size                              : 64.3 KiB (0%)
Title                                    : SRT
Language                                 : English
Default                                  : Yes
Forced                                   : No

Menu
00:00:00.000                             : Chapter 01
00:04:46.453                             : Chapter 02
00:10:47.438                             : Chapter 03
00:16:28.696                             : Chapter 04
00:20:29.186                             : Chapter 05
00:26:01.810                             : Chapter 06
00:29:12.709                             : Chapter 07
00:37:56.691                             : Chapter 08
00:44:55.735                             : Chapter 09
00:49:54.783                             : Chapter 10
00:58:12.364                             : Chapter 11
01:04:43.379                             : Chapter 12
01:09:36.464                             : Chapter 13
01:16:05.811                             : Chapter 14
01:24:44.871                             : Chapter 15
01:30:31.468                             : Chapter 16





提示:如迅雷下载提示"任务出错"、"因版权无法下载",请尝试【迅雷5】
上传的附件:
最新回复 (0)
返回
本站所有资源均收集自互联网,没有提供影片资源存储, 也未参与录制、上传,若本站收录的资源无意侵犯了您的权益, 请联系邮箱:gogoimgs#gmail.com(#[email protected])