[更早] [欧美] [喜剧] [WEB-1080P] 今天在这里 Here.Today.2021.1080p.WEB.h264-RUMOUR 8.08GB

uump4 1月前 315

帖子完整标题:今天在这里 Here.Today.2021.1080p.WEB.h264-RUMOUR 8.08GB



◎译  名 今天在这里
◎片  名 Here Today
◎年  代 2021
◎产  地 美国
◎类  别 喜剧
◎语  言 英语
◎上映日期 2021-05-06(美国)
◎豆瓣评分 7.5/10 from 143 users
◎豆瓣链接 https://movie.douban.com/subject/34851832/
◎片  长 117分钟
◎导  演 比利·克里斯托 Billy Crystal
◎编  剧 比利·克里斯托 Billy Crystal / 艾伦·兹韦贝尔 Alan Zweibel
◎主  演 蒂凡尼·哈迪斯 Tiffany Haddish
       比利·克里斯托 Billy Crystal
       莎朗·斯通 Sharon Stone
       佩恩·拜德格雷 Penn Badgley
       劳拉·本纳蒂 Laura Benanti
       凯文·克莱恩 Kevin Kline
       巴瑞·莱文森 Barry Levinson
       路易莎·克劳瑟 Louisa Krause
       乔安娜·阿德勒 Joanna Adler
       希洛·维里科 Shiloh Verrico
       安娜·迪佛·史密斯 Anna Deavere Smith
       苏珊·波尔法 Susan Pourfar
       里桑·瓦伦丁 Lisann Valentin
       蒂胡纳·里克斯 Tijuana Ricks
       尼扬比·尼扬比 Nyambi Nyambi
       鲍勃·科斯塔斯 Bob Costas
       托尼·诺莫夫斯基 Tony Naumovski
       布兰登·乌拉诺维兹 Brandon Uranowitz
       丽贝卡·莫勒 Rebecca Merle
       艾利克斯··布莱曼 Alex Brightman

◎标  签 美国 | 喜剧 | 2021 | 友情 | 剧情 | 电影 | 家庭 | 美国电影

◎简  介

  影片故事讲述了老牌喜剧作家查理(比利·克里斯托 Billy Crystal 饰)与才华横溢的纽约街头歌手艾玛(蒂凡尼·哈迪斯 Tiffany Haddish 饰)成为朋友的故事。他们在一起形成了一种不太可能但却令人捧腹和感动的友谊。

Video
ID                                       : 1
Format                                   : AVC
Format/Info                              : Advanced Video Codec
Format profile                           : [email protected]
Format settings                          : CABAC / 4 Ref Frames
Format settings, CABAC                   : Yes
Format settings, Reference frames        : 4 frames
Codec ID                                 : V_MPEG4/ISO/AVC
Duration                                 : 1 h 56 min
Bit rate mode                            : Constant
Bit rate                                 : 9 258 kb/s
Nominal bit rate                         : 10 000 kb/s
Width                                    : 1 920 pixels
Height                                   : 1 040 pixels
Display aspect ratio                     : 1.85:1
Frame rate mode                          : Constant
Frame rate                               : 23.976 (24000/1001/189150) FPS
Color space                              : YUV
Chroma subsampling                       : 4:2:0
Bit depth                                : 8 bits
Scan type                                : Progressive
Bits/(Pixel*Frame)                       : 0.193
Stream size                              : 7.55 GiB (94%)
Language                                 : English
Default                                  : Yes
Forced                                   : No
Color range                              : Limited
Color primaries                          : BT.709
Transfer characteristics                 : BT.709
Matrix coefficients                      : BT.709

Audio
ID                                       : 2
Format                                   : E-AC-3
Format/Info                              : Enhanced AC-3
Commercial name                          : Dolby Digital Plus
Codec ID                                 : A_EAC3
Duration                                 : 1 h 56 min
Bit rate mode                            : Constant
Bit rate                                 : 640 kb/s
Channel(s)                               : 6 channels
Channel layout                           : L R C LFE Ls Rs
Sampling rate                            : 48.0 kHz
Frame rate                               : 31.250 FPS (1536 SPF)
Compression mode                         : Lossy
Stream size                              : 535 MiB (6%)
Language                                 : English
Service kind                             : Complete Main
Default                                  : Yes
Forced                                   : No

Text
ID                                       : 3
Format                                   : UTF-8
Codec ID                                 : S_TEXT/UTF8
Codec ID/Info                            : UTF-8 Plain Text
Duration                                 : 1 h 55 min
Bit rate                                 : 87 b/s
Count of elements                        : 2347
Stream size                              : 73.6 KiB (0%)
Title                                    : English
Language                                 : English
Default                                  : No
Forced                                   : No





提示:如迅雷下载提示"任务出错"、"因版权无法下载",请尝试【迅雷5】
上传的附件:
最新回复 (0)
返回
本站所有资源均收集自互联网,没有提供影片资源存储, 也未参与录制、上传,若本站收录的资源无意侵犯了您的权益, 请联系邮箱:gogoimgs#gmail.com(#[email protected])