[2008] [泰国] [剧情] [WEB-1080P] 梦之队/梦幻之队 Dream.Team.2008.THAI.1080p.NF.WEBRip.AAC2.0.x264-RSG 3.10GB

uump4 1月前 381

帖子完整标题:梦之队/梦幻之队 Dream.Team.2008.THAI.1080p.NF.WEBRip.AAC2.0.x264-RSG 3.10GB

悠悠MP4_MP4电影下载_梦之队/梦幻之队 Dream.Team.2008.THAI.1080p.NF.WEBRip.AAC2.0.x264-RSG 3.10GB

◎译  名 梦之队/梦幻之队/梦幻团队
◎片  名 ???????
◎年  代 2008
◎产  地 泰国
◎类  别 剧情 / 喜剧 / 运动
◎语  言 泰文
◎上映日期 2008
◎豆瓣评分 /10 from 0 users
◎豆瓣链接 https://movie.douban.com/subject/3120359/
◎导  演 基蒂科恩·利亚西里昆 Kittikorn Liasirikun

◎标  签 泰国 | 泰国电影 | 泰國電影 | 梦之队 | 可愛 | 勵志 | 励志 | 兒童電影

◎简  介

  这是一部逗趣的儿童电影,讲述一群幼儿园小朋友为了取得拔河大赛的胜利而不懈努力的故事,青春偶像Four在片中出演团队的“管理人”角色。

Video
ID                                       : 1
Format                                   : AVC
Format/Info                              : Advanced Video Codec
Format profile                           : [email protected]
Format settings                          : CABAC / 4 Ref Frames
Format settings, CABAC                   : Yes
Format settings, Reference frames        : 4 frames
Codec ID                                 : V_MPEG4/ISO/AVC
Duration                                 : 1 h 27 min
Bit rate mode                            : Constant
Bit rate                                 : 5 000 kb/s
Width                                    : 1 920 pixels
Height                                   : 1 080 pixels
Display aspect ratio                     : 16:9
Frame rate mode                          : Constant
Frame rate                               : 25.000 FPS
Color space                              : YUV
Chroma subsampling                       : 4:2:0
Bit depth                                : 8 bits
Scan type                                : Progressive
Bits/(Pixel*Frame)                       : 0.096
Stream size                              : 3.02 GiB (97%)
Language                                 : Thai
Default                                  : Yes
Forced                                   : No

Audio
ID                                       : 2
Format                                   : AAC LC
Format/Info                              : Advanced Audio Codec Low Complexity
Codec ID                                 : A_AAC-2
Duration                                 : 1 h 27 min
Bit rate                                 : 128 kb/s
Channel(s)                               : 2 channels
Channel layout                           : L R
Sampling rate                            : 48.0 kHz
Frame rate                               : 46.875 FPS (1024 SPF)
Compression mode                         : Lossy
Stream size                              : 79.9 MiB (3%)
Language                                 : Thai
Default                                  : Yes
Forced                                   : No

Text
ID                                       : 3
Format                                   : UTF-8
Codec ID                                 : S_TEXT/UTF8
Codec ID/Info                            : UTF-8 Plain Text
Duration                                 : 1 h 23 min
Bit rate                                 : 72 b/s
Count of elements                        : 1438
Stream size                              : 44.5 KiB (0%)
Title                                    : English
Language                                 : English
Default                                  : No
Forced                                   : No


悠悠MP4_MP4电影下载_梦之队/梦幻之队 Dream.Team.2008.THAI.1080p.NF.WEBRip.AAC2.0.x264-RSG 3.10GB悠悠MP4_MP4电影下载_梦之队/梦幻之队 Dream.Team.2008.THAI.1080p.NF.WEBRip.AAC2.0.x264-RSG 3.10GB悠悠MP4_MP4电影下载_梦之队/梦幻之队 Dream.Team.2008.THAI.1080p.NF.WEBRip.AAC2.0.x264-RSG 3.10GB


提示:如迅雷下载提示"任务出错"、"因版权无法下载",请尝试【迅雷5】
上传的附件:
最新回复 (0)
返回
本站所有资源均收集自互联网,没有提供影片资源存储, 也未参与录制、上传,若本站收录的资源无意侵犯了您的权益, 请联系邮箱:gogoimgs#gmail.com(#[email protected])