[2021] [大陆] [纯净版] [血战狙击岭][WEB-MP4/1.18GB][1080P][战争,中国电影,电影,大陆,董天作品]

uump4 8天前 1476

悠悠MP4_MP4电影下载_[血战狙击岭][WEB-MP4/1.18GB][1080P][战争,中国电影,电影,大陆,董天作品]

◎译  名 血战狙击岭
◎年  代 2021
◎产  地 中国大陆
◎语  言 汉语普通话
◎上映日期 2021-07-21(中国大陆)
◎IMDb链接 https://www.imdb.com/title//
◎豆瓣链接 https://movie.douban.com/subject/35528896/
◎片  长 95分钟
◎导  演 李志文 Chi-Man Lee (id:1431612)
       董天  (id:1457147)
◎演  员  田峻丞 Juncheng Tian (id:1317683)
       张珏 Jue Zhang (id:1366630)
       姜浩严 Haoyan Jiang (id:1399050)

◎标  签 战争 / 中国电影 / 电影 / 大陆 / 2021 / 董天作品 / 爱国主义 / 李志文作品

◎简  介
  抗美援朝战争,在上甘岭战役中,我军狙击手孙承欢枪法神准,多次帮助部队取得胜利,引来敌军王牌狙击手的追杀。为了保护战友,孙承欢选择牺牲自己,和敌军狙击手同归于尽。 该片取材上甘岭战役,将抗美援朝这场巩固新中国人民政权的战争进行了艺术再创作,生动讲述狙击岭上动人心魄的故事。

General
Complete name                            : 血战狙击岭.[email protected]BBQDDQ.COM.mp4
Format                                   : MPEG-4
Format profile                           : Base Media
Codec ID                                 : isom (isom/iso2/avc1/mp41)
File size                                : 1.18 GiB
Duration                                 : 1 h 27 min
Overall bit rate                         : 1 920 kb/s
Writing application                      : Lavf58.32.104

Video
ID                                       : 1
Format                                   : AVC
Format/Info                              : Advanced Video Codec
Format profile                           : [email protected]
Format settings                          : CABAC / 4 Ref Frames
Format settings, CABAC                   : Yes
Format settings, Reference frames        : 4 frames
Codec ID                                 : avc1
Codec ID/Info                            : Advanced Video Coding
Duration                                 : 1 h 27 min
Bit rate                                 : 1 820 kb/s
Width                                    : 1 920 pixels
Height                                   : 816 pixels
Display aspect ratio                     : 2.35:1
Frame rate mode                          : Variable
Frame rate                               : 25.000 FPS
Minimum frame rate                       : 24.993 FPS
Maximum frame rate                       : 25.007 FPS
Color space                              : YUV
Chroma subsampling                       : 4:2:0
Bit depth                                : 8 bits
Scan type                                : Progressive
Bits/(Pixel*Frame)                       : 0.046
Stream size                              : 1.12 GiB (95%)
Writing library                          : ptw-1.0.129 rcm-vary vbl-0 vwk
Color range                              : Limited
Color primaries                          : BT.709
Transfer characteristics                 : BT.709
Matrix coefficients                      : BT.709
Codec configuration box                  : avcC

Audio
ID                                       : 2
Format                                   : AAC LC
Format/Info                              : Advanced Audio Codec Low Complexity
Codec ID                                 : mp4a-40-2
Duration                                 : 1 h 27 min
Bit rate mode                            : Constant
Bit rate                                 : 93.4 kb/s
Channel(s)                               : 2 channels
Channel layout                           : L R
Sampling rate                            : 48.0 kHz
Frame rate                               : 46.875 FPS (1024 SPF)
Compression mode                         : Lossy
Stream size                              : 58.8 MiB (5%)
Default                                  : Yes
Alternate group                          : 1


悠悠MP4_MP4电影下载_[血战狙击岭][WEB-MP4/1.18GB][1080P][战争,中国电影,电影,大陆,董天作品]

提示:如迅雷下载提示"任务出错"、"因版权无法下载",请尝试【迅雷5】
上传的附件:
最新回复 (0)
返回
本站所有资源均收集自互联网,没有提供影片资源存储, 也未参与录制、上传,若本站收录的资源无意侵犯了您的权益, 请联系邮箱:gogoimgs#gmail.com(#[email protected])