[2020] [其他] [喜剧] [纯净版] [十三姐第2部:生死三天][WEB-MKV/2.93GB][1080P][高清无水印片源]

uump4 8天前 922

悠悠MP4_MP4电影下载_[十三姐第2部:生死三天][WEB-MKV/2.93GB][1080P][高清无水印片源]

◎译  名 十三姐第2部:生死三天
◎片  名 Chi Muoi Ba 2: 3 Ngay Sinh Tu
◎年  代 2020
◎产  地 越南
◎类  别 喜剧 / 动作
◎语  言 越南语 Vietnamese
◎上映日期 2020-12-25(越南)
◎IMDb链接 https://www.imdb.com/title/tt13707568/
◎豆瓣链接 https://movie.douban.com/subject/35305709/
◎片  长 96分钟
◎导  演 武清和 Vo Thanh Hoa (id:1415195)
◎演  员 矫明俊 Kieu Minh Tuan (id:1370623)

General
Unique ID                                : 266773480526692806876202044442455644051 (0xC8B2B415655CF4BB29CACC9B2F591793)
Complete name                            : [email protected]v
Format                                   : Matroska
Format version                           : Version 4
File size                                : 2.93 GiB
Duration                                 : 1 h 55 min
Overall bit rate mode                    : Variable
Overall bit rate                         : 3 648 kb/s
Encoded date                             : UTC 2021-05-11 13:30:47
Writing application                      : mkvmerge v56.1.0 ('My Friend') 64-bit
Writing library                          : libebml v1.4.2 + libmatroska v1.6.4

Video
ID                                       : 1
Format                                   : AVC
Format/Info                              : Advanced Video Codec
Format profile                           : [email protected]
Format settings                          : CABAC / 2 Ref Frames
Format settings, CABAC                   : Yes
Format settings, Reference frames        : 2 frames
Format settings, GOP                     : M=4, N=60
Codec ID                                 : V_MPEG4/ISO/AVC
Duration                                 : 1 h 55 min
Bit rate mode                            : Variable
Bit rate                                 : 3 512 kb/s
Maximum bit rate                         : 5 500 kb/s
Width                                    : 1 920 pixels
Height                                   : 1 080 pixels
Display aspect ratio                     : 16:9
Frame rate mode                          : Constant
Frame rate                               : 23.976 (24000/1001) FPS
Color space                              : YUV
Chroma subsampling                       : 4:2:0
Bit depth                                : 8 bits
Scan type                                : Progressive
Bits/(Pixel*Frame)                       : 0.071
Stream size                              : 2.82 GiB (96%)
Default                                  : Yes
Forced                                   : No

Audio
ID                                       : 2
Format                                   : AAC LC
Format/Info                              : Advanced Audio Codec Low Complexity
Codec ID                                 : A_AAC-2
Duration                                 : 1 h 55 min
Bit rate                                 : 128 kb/s
Channel(s)                               : 2 channels
Channel layout                           : L R
Sampling rate                            : 48.0 kHz
Frame rate                               : 46.875 FPS (1024 SPF)
Compression mode                         : Lossy
Stream size                              : 105 MiB (4%)
Language                                 : Korean
Default                                  : Yes
Forced                                   : No


悠悠MP4_MP4电影下载_[十三姐第2部:生死三天][WEB-MKV/2.93GB][1080P][高清无水印片源]

提示:如迅雷下载提示"任务出错"、"因版权无法下载",请尝试【迅雷5】
上传的附件:
最新回复 (0)
返回
本站所有资源均收集自互联网,没有提供影片资源存储, 也未参与录制、上传,若本站收录的资源无意侵犯了您的权益, 请联系邮箱:gogoimgs#gmail.com(#[email protected])