[更早] [欧美] [动作] [纯净版] [战士帮][BD-MKV/8.50GB][中文字幕][1080P][美国,黑帮,犯罪,美国电影]

uump4 8天前 794

悠悠MP4_MP4电影下载_[战士帮][BD-MKV/8.50GB][中文字幕][1080P][美国,黑帮,犯罪,美国电影]

◎译  名 战士帮 / 杀神挽歌(台) / 战士联盟帮
◎片  名 The Warriors
◎年  代 1979
◎产  地 美国
◎类  别 动作 / 惊悚 / 犯罪 / 冒险
◎语  言 英语
◎上映日期 1979-02-09
◎IMDb链接 https://www.imdb.com/title/tt0080120/
◎豆瓣评分 7.2/10 (973人评价)
◎豆瓣链接 https://movie.douban.com/subject/1300938/
◎片  长 92 分钟
◎导  演 沃尔特·希尔 Walter Hill (id:1014030)
◎编  剧 沃尔特·希尔 Walter Hill (id:1014030)
◎演  员 迈克尔·贝克 Michael Beck (id:1062310)
       詹姆斯·瑞马尔 James Remar (id:1013812)
       大卫·哈里斯 David Harris (id:1092700)
       马塞利诺·桑切斯 Marcelino Sánchez (id:1153097)
       Charles Serrano Charles Serrano (id:1141742)
       Terry Michos Terry Michos (id:1119206)
       Apache Ramos Apache Ramos (id:1145741)
       查尔斯·西尔文 Charles Silvern (id:1146931)
       戴布拉·范·沃尔肯布劳 Deborah Van Valkenburgh (id:1159621)
       林恩·瑟格本 Lynne Thigpen (id:1159756)
       托马斯沃特斯 Thomas G. Waites (id:1161183)
       John Snyder John Snyder (id:1350585)
       Harold Miller Harold Miller (id:1118584)
       欧文·凯斯 Irwin Keyes (id:1111509)
       大卫·帕特里克·凯利 David Patrick Kelly (id:1105073)
       罗伯特·汤森德 Robert Townsend (id:1007098)
       Charles Zucker Charles Zucker (id:1019476)
       克雷格·R·巴克斯利 Craig R. Baxley (id:1028046)
       梅塞迪丝·鲁尔 Mercedes Ruehl (id:1032042)
       Doran Clark Doran Clark (id:1073213)
       Gerald G. Francis Gerald G. Francis (id:1083596)
       保罗·格雷科 Paul Greco (id:1096833)
       John Gibson John Gibson (id:1099335)
       Dennis Gregory Dennis Gregory (id:1100219)
       Tommy J. Huff Tommy J. Huff (id:1102735)
       史蒂夫·詹姆斯 Steve James (id:1103291)
       索尼·兰哈姆 Sonny Landham (id:1007057)
       劳伦斯·戈登 Lawrence Gordon (id:1000700)
       劳伦·布罗泽 Laurent Bouzereau (id:1279090)
       弗兰克·马歇尔 Frank Marshall (id:1049939)
       乔·西尔沃 Joel Silver (id:1010670)
       沃尔特·希尔 Walter Hill (id:1014030)
       Freeman A. Davies Freeman A. Davies (id:1281880)
       巴里·德·沃尔宗 Barry De Vorzon (id:1023483)
       Andrew Laszlo Andrew Laszlo (id:1014841)
       苏珊·E·莫尔斯 Susan E. Morse (id:1292568)
       比利·韦伯 Billy Weber (id:1300592)
       Freeman A. Davies Freeman A. Davies (id:1281880)
       霍华德·弗尤尔 Howard Feuer (id:1082153)
       David Sosna David Sosna (id:1298082)

◎标  签 美国 / 黑帮 / 犯罪 / 美国电影 / cult / 1979 / 70年代 / 动作

◎简  介
  遍布纽约全城的数百帮派在这个夜里集体出动,为了响应纽约地下王者塞勒斯的号召,每支帮派派出九名不携带武器的成员参加塞勒斯的帮派大会。塞勒斯慷慨陈词,要求所有帮派遵守停战协议,将矛头一致对准警察,然而在演讲当中,塞勒斯中枪身亡,来自科尼岛的“战士帮”成员目击凶手,反被对方诬陷,混乱的人流里,战士帮匆匆逃出场地。帮派大会随即发出信息,要求各处的帮派截击返回科尼岛的战士帮。这边厢,因老大克里昂失踪,斯旺(Michael Beck 饰)带领其他七人应对这凶险的一夜,他们将面临其他帮派与警察的双重堵截,为了能回到自己的地盘,只能靠自己打出一条通路……

General
Unique ID                                : 25906237924005813324986311217342672170 (0x137D5C24CB2B9ACC681C05E235616D2A)
Complete name                            : [email protected]kv
Format                                   : Matroska
Format version                           : Version 4
File size                                : 8.50 GiB
Duration                                 : 1 h 32 min
Overall bit rate                         : 13.1 Mb/s
Movie name                               : The Warriors 1979 1080p BluRay DTS [email protected]
Encoded date                             : UTC 2021-07-22 00:06:57
Writing application                      : mkvmerge v38.0.0 ('The Silent Type') 64-bit
Writing library                          : libebml v1.3.9 + libmatroska v1.5.2

Video
ID                                       : 1
Format                                   : HEVC
Format/Info                              : High Efficiency Video Coding
Format profile                           : Main [email protected]@High
Codec ID                                 : V_MPEGH/ISO/HEVC
Duration                                 : 1 h 32 min
Bit rate                                 : 11.6 Mb/s
Width                                    : 1 920 pixels
Height                                   : 1 080 pixels
Display aspect ratio                     : 16:9
Frame rate mode                          : Constant
Frame rate                               : 23.976 (24000/1001) FPS
Color space                              : YUV
Chroma subsampling                       : 4:2:0
Bit depth                                : 10 bits
Bits/(Pixel*Frame)                       : 0.233
Stream size                              : 7.51 GiB (88%)
Title                                    : [email protected]
Writing library                          : x265 - H.265/HEVC codec
Default                                  : Yes
Forced                                   : No

Audio
ID                                       : 2
Format                                   : DTS
Format/Info                              : Digital Theater Systems
Codec ID                                 : A_DTS
Duration                                 : 1 h 32 min
Bit rate mode                            : Constant
Bit rate                                 : 1 509 kb/s
Channel(s)                               : 6 channels
Channel layout                           : C L R Ls Rs LFE
Sampling rate                            : 48.0 kHz
Frame rate                               : 93.750 FPS (512 SPF)
Bit depth                                : 24 bits
Compression mode                         : Lossy
Stream size                              : 1 003 MiB (12%)
Title                                    : English
Language                                 : English
Default                                  : Yes
Forced                                   : No

Text #1
ID                                       : 3
Format                                   : PGS
Muxing mode                              : zlib
Codec ID                                 : S_HDMV/PGS
Codec ID/Info                            : Picture based subtitle format used on BDs/HD-DVDs
Duration                                 : 1 h 29 min
Bit rate                                 : 18.9 kb/s
Count of elements                        : 1216
Stream size                              : 12.0 MiB (0%)
Title                                    : CHS
Language                                 : Chinese
Default                                  : Yes
Forced                                   : No

Text #2
ID                                       : 4
Format                                   : PGS
Muxing mode                              : zlib
Codec ID                                 : S_HDMV/PGS
Codec ID/Info                            : Picture based subtitle format used on BDs/HD-DVDs
Duration                                 : 1 h 29 min
Bit rate                                 : 19.2 kb/s
Count of elements                        : 1216
Stream size                              : 12.3 MiB (0%)
Title                                    : CHT
Language                                 : Chinese
Default                                  : No
Forced                                   : No

Menu
00:00:00.000                             : en:Chapter 01
00:06:51.411                             : en:Chapter 02
00:16:01.961                             : en:Chapter 03
00:23:50.429                             : en:Chapter 04
00:28:54.733                             : en:Chapter 05
00:39:50.388                             : en:Chapter 06
00:46:37.795                             : en:Chapter 07
00:55:51.348                             : en:Chapter 08
01:01:58.715                             : en:Chapter 09
01:09:07.143                             : en:Chapter 10
01:16:48.604                             : en:Chapter 11
01:23:31.006                             : en:Chapter 12


悠悠MP4_MP4电影下载_[战士帮][BD-MKV/8.50GB][中文字幕][1080P][美国,黑帮,犯罪,美国电影]

提示:如迅雷下载提示"任务出错"、"因版权无法下载",请尝试【迅雷5】
上传的附件:
最新回复 (0)
返回
本站所有资源均收集自互联网,没有提供影片资源存储, 也未参与录制、上传,若本站收录的资源无意侵犯了您的权益, 请联系邮箱:gogoimgs#gmail.com(#[email protected])