[2020] [其他] [剧情] [纯净版] [法式出口][BD-MKV/8.66GB][中文字幕][1080P][喜剧,英国,美国,剧情,米歇尔·菲佛]

uump4 8天前 309

悠悠MP4_MP4电影下载_[法式出口][BD-MKV/8.66GB][中文字幕][1080P][喜剧,英国,美国,剧情,米歇尔·菲佛]

◎译  名 法式出口 / 法式告别 / 法式出路
◎片  名 French Exit
◎年  代 2020
◎产  地 加拿大 / 爱尔兰 / 英国
◎类  别 剧情 / 喜剧
◎语  言 英语
◎上映日期 2020-10-10(纽约电影节) / 2021-02-12(美国点映) / 2021-04-02(美国)
◎IMDb链接 https://www.imdb.com/title/tt10279362/
◎豆瓣评分 6.4/10 (843人评价)
◎豆瓣链接 https://movie.douban.com/subject/33433365/
◎片  长 113分钟
◎导  演 阿扎泽·雅各布斯 Azazel Jacobs (id:1316136)
◎编  剧 帕特里克·德威特 Patrick Dewitt (id:1336476)
◎演  员 米歇尔·菲佛 Michelle Pfeiffer (id:1035642)
       卢卡斯·赫奇斯 Lucas Hedges (id:1340596)
       崔西·莱茨 Tracy Letts (id:1009889)
       维勒莉·玛哈菲 Valerie Mahaffey (id:1018193)
       苏珊·柯尼 Susan Coyne (id:1281419)
       伊莫琴·普茨 Imogen Poots (id:1274510)
       丹妮尔·麦克唐纳 Danielle Macdonald (id:1382494)
       伊萨赫·德·班克尔 Isaach De Bankolé (id:1022827)
       丹尼尔·迪托马索 Daniel DiTomasso (id:1324200)
       马特·霍兰德 Matt Holland (id:1453008)
       Robert Higden Robert Higden (id:1097168)
       拉里·戴 Larry Day (id:1037110)
       朱利安·拜利 Julian Bailey (id:1019488)
       Una Kay Una Kay (id:1102810)
       瓦拉斯塔·瓦拉纳 Vlasta Vrana (id:1300208)

◎标  签 喜剧 / 英国 / 美国 / 剧情 / 2020 / 米歇尔·菲佛 / MichellePfeiffer / 2021

◎简  介
  米歇尔·菲佛、卢卡斯·赫奇斯、崔西·莱茨将出演超现实主义喜剧片[法国出口](French Exit,暂译)。阿扎泽·雅各布斯将执导这部改编自帕特里克·德维特小说的电影。菲佛饰演60岁的曼哈顿社交名媛弗朗西丝·普莱斯,赫奇斯饰演她没有方向的儿子马尔科姆,莱茨饰演她已故多年的丈夫富兰克林的化身——一只家猫。

◎获奖情况 (共3项)
  第78届金球奖 (2021)
  电影类 音乐/喜剧片最佳女主角(提名)
   └──米歇尔·菲佛 (id:1035642)

  第36届美国独立精神奖 (2021)
  最佳女配角(提名)
   └──维勒莉·玛哈菲 (id:1018193)

  第25届金卫星奖 (2021)
  电影部门 喜剧/音乐片最佳女主角(提名)
   └──米歇尔·菲佛 (id:1035642)

General
Unique ID                                : 297773293829925759752911228085027704936 (0xE0050CE1F0EAAFAA5081B237948F9068)
Complete name                            : [email protected]v
Format                                   : Matroska
Format version                           : Version 4
File size                                : 8.66 GiB
Duration                                 : 1 h 53 min
Overall bit rate                         : 11.0 Mb/s
Movie name                               : French Exit 2020 1080p BluRay DTS [email protected]
Encoded date                             : UTC 2021-07-20 09:16:10
Writing application                      : mkvmerge v38.0.0 ('The Silent Type') 64-bit
Writing library                          : libebml v1.3.9 + libmatroska v1.5.2

Video
ID                                       : 1
Format                                   : HEVC
Format/Info                              : High Efficiency Video Coding
Format profile                           : Main [email protected]@High
Codec ID                                 : V_MPEGH/ISO/HEVC
Duration                                 : 1 h 53 min
Bit rate                                 : 9 427 kb/s
Width                                    : 1 920 pixels
Height                                   : 800 pixels
Display aspect ratio                     : 2.40:1
Frame rate mode                          : Constant
Frame rate                               : 23.976 (24000/1001) FPS
Color space                              : YUV
Chroma subsampling                       : 4:2:0
Bit depth                                : 10 bits
Bits/(Pixel*Frame)                       : 0.256
Stream size                              : 7.44 GiB (86%)
Title                                    : [email protected]
Writing library                          : x265 - H.265/HEVC codec
Default                                  : Yes
Forced                                   : No

Audio
ID                                       : 2
Format                                   : DTS
Format/Info                              : Digital Theater Systems
Codec ID                                 : A_DTS
Duration                                 : 1 h 52 min
Bit rate mode                            : Constant
Bit rate                                 : 1 509 kb/s
Channel(s)                               : 6 channels
Channel layout                           : C L R Ls Rs LFE
Sampling rate                            : 48.0 kHz
Frame rate                               : 93.750 FPS (512 SPF)
Bit depth                                : 24 bits
Compression mode                         : Lossy
Stream size                              : 1.19 GiB (14%)
Title                                    : French
Language                                 : French
Default                                  : Yes
Forced                                   : No

Text #1
ID                                       : 3
Format                                   : PGS
Muxing mode                              : zlib
Codec ID                                 : S_HDMV/PGS
Codec ID/Info                            : Picture based subtitle format used on BDs/HD-DVDs
Duration                                 : 1 h 51 min
Bit rate                                 : 25.2 kb/s
Count of elements                        : 2066
Stream size                              : 20.1 MiB (0%)
Title                                    : CHS
Language                                 : Chinese
Default                                  : Yes
Forced                                   : No

Text #2
ID                                       : 4
Format                                   : PGS
Muxing mode                              : zlib
Codec ID                                 : S_HDMV/PGS
Codec ID/Info                            : Picture based subtitle format used on BDs/HD-DVDs
Duration                                 : 1 h 51 min
Bit rate                                 : 25.9 kb/s
Count of elements                        : 2066
Stream size                              : 20.7 MiB (0%)
Title                                    : CHT
Language                                 : Chinese
Default                                  : No
Forced                                   : No

Menu
00:00:00.000                             : en:Chapter 01
00:10:42.559                             : en:Chapter 02
00:19:28.125                             : en:Chapter 03
00:25:27.526                             : en:Chapter 04
00:35:12.569                             : en:Chapter 05
00:47:02.653                             : en:Chapter 06
00:52:10.919                             : en:Chapter 07
01:00:25.163                             : en:Chapter 08
01:08:27.770                             : en:Chapter 09
01:13:42.043                             : en:Chapter 10
01:17:07.790                             : en:Chapter 11
01:23:57.532                             : en:Chapter 12
01:34:08.017                             : en:Chapter 13
01:38:56.848                             : en:Chapter 14
01:41:21.826                             : en:Chapter 15
01:43:56.063                             : en:Chapter 16
01:45:58.143                             : en:Chapter 17
01:52:49.721                             : en:Chapter 18


悠悠MP4_MP4电影下载_[法式出口][BD-MKV/8.66GB][中文字幕][1080P][喜剧,英国,美国,剧情,米歇尔·菲佛]

提示:如迅雷下载提示"任务出错"、"因版权无法下载",请尝试【迅雷5】
上传的附件:
最新回复 (0)
返回
本站所有资源均收集自互联网,没有提供影片资源存储, 也未参与录制、上传,若本站收录的资源无意侵犯了您的权益, 请联系邮箱:gogoimgs#gmail.com(#[email protected])