[2014] [大陆] [悬疑] [纯净版] [暴疯语][WEB-MP4/8.35GB][4K-2160P][悬疑,香港,刘青云,香港电影,心理,剧情]

uump4 10天前 1342

悠悠MP4_MP4电影下载_[暴疯语][WEB-MP4/8.35GB][4K-2160P][悬疑,香港,刘青云,香港电影,心理,剧情]

◎译  名 暴疯语 / Insanity
◎年  代 2014
◎产  地 中国大陆 / 中国香港
◎类  别 悬疑 / 惊悚
◎语  言 汉语普通话 / 粤语
◎上映日期 2015-04-03(中国大陆) / 2014-11-19(台北金马影展)
◎IMDb链接 https://www.imdb.com/title/tt4305562/
◎豆瓣评分 5.9/10 (38713人评价)
◎豆瓣链接 https://movie.douban.com/subject/25742299/
◎片  长 99分钟
◎导  演 李光耀 David Lee Kwong-Yiu (id:1335186)
◎编  剧 李光耀 David Lee Kwong-Yiu (id:1335186)
       吕冠南 Koon-Nam Lui (id:1313441)
       尔冬升 Tung-shing Yee (id:1274289)
◎演  员 刘青云 Sean Lau (id:1007251)
       黄晓明 Xiaoming Huang (id:1041404)
       方中信 Alex Fong (id:1033102)
       薛凯琪 Fiona Sit (id:1023827)
       鲍起静 Hee Ching Paw (id:1274229)
       叶璇 Michelle Ye (id:1005537)
       毛俊辉 Fredric Mao Chun-fai (id:1313966)
       孙佳君 Paulyn Sun (id:1050664)
       冼色丽 Seli Xian (id:1275651)
       卫诗雅 Michelle Wai (id:1313357)
       李国麟 Kwok-Lun Lee (id:1274575)
       伍国明 Kwok-ming Ng (id:1359527)
       王宜华 Chloe Wong (id:1380813)
       陈郁宪 Donovan Chan (id:1417027)
       黄焯言 Matthew Wong (id:1383010)
       麦洛新 Lok San Mak (id:1373029)
       林炳坤 Bingkun Lin (id:1350348)
       钱荣威 Wing-Wai Chin (id:1418361)
       陈志英 Chi Ying Chan (id:1326652)
       张世宏 Silver Cheung (id:1318916)
       黄国雄 Samuel Wong (id:1426248)

◎标  签 悬疑 / 香港 / 刘青云 / 香港电影 / 心理 / 剧情 / 2015 / 尔冬升

◎简  介
  失业在家的范国生(刘青云 饰)残忍地杀害了妻子(叶璇 饰),这件事震惊了全香港,而他随后被诊断为有精神疾病而逃脱了法律制裁。医学才俊周明杰(黄晓明 饰)主动承担为范国生的主治医生,极力帮助其治疗。三年后,周明杰力保范国生出院,重回社会,这遭到了医学界的一致反对,但是周却执意坚持。可是新的毒贩凶杀案又接踵而来,警方又再次把目标锁定为范国生,与此同时,周明杰的未婚妻宝儿(薛凯琪 饰)遭遇了死亡威胁,强大的压力让周明杰无法喘息。如何拯救爱人,拯救事业?真相到底是什么?精神病人究竟能否被治愈?新一轮的自我救赎悄然开始。

◎获奖情况 (共5项)
  第51届台北金马影展 (2014)
  金马奖 最佳女配角(提名)
   └──鲍起静 (id:1274229)

  第34届香港电影金像奖 (2015)
  最佳男主角(提名)
   └──刘青云 (id:1007251)
  最佳女配角(提名)
   └──鲍起静 (id:1274229)
  最佳原创电影歌曲(提名)
  新晋导演
   └──李光耀 (id:1335186)

General
Complete name                            : 暴疯语[email protected]
Format                                   : MPEG-4
Format profile                           : Base Media
Codec ID                                 : isom (isom/iso2/mp41)
File size                                : 8.35 GiB
Duration                                 : 1 h 38 min
Overall bit rate                         : 12.2 Mb/s
Writing application                      : Lavf58.32.104

Video
ID                                       : 1
Format                                   : HEVC
Format/Info                              : High Efficiency Video Coding
Format profile                           : [email protected]@High
Codec ID                                 : hev1
Codec ID/Info                            : High Efficiency Video Coding
Duration                                 : 1 h 38 min
Bit rate                                 : 12.0 Mb/s
Width                                    : 3 840 pixels
Height                                   : 1 592 pixels
Display aspect ratio                     : 2.40:1
Frame rate mode                          : Constant
Frame rate                               : 24.000 FPS
Color space                              : YUV
Chroma subsampling                       : 4:2:0
Bit depth                                : 8 bits
Bits/(Pixel*Frame)                       : 0.082
Stream size                              : 8.21 GiB (98%)
Codec configuration box                  : hvcC

Audio
ID                                       : 2
Format                                   : AAC LC
Format/Info                              : Advanced Audio Codec Low Complexity
Codec ID                                 : mp4a-40-2
Duration                                 : 1 h 38 min
Bit rate mode                            : Constant
Bit rate                                 : 192 kb/s
Channel(s)                               : 2 channels
Channel layout                           : L R
Sampling rate                            : 44.1 kHz
Frame rate                               : 43.066 FPS (1024 SPF)
Compression mode                         : Lossy
Stream size                              : 133 MiB (2%)
Default                                  : Yes
Alternate group                          : 1


悠悠MP4_MP4电影下载_[暴疯语][WEB-MP4/8.35GB][4K-2160P][悬疑,香港,刘青云,香港电影,心理,剧情]

提示:如迅雷下载提示"任务出错"、"因版权无法下载",请尝试【迅雷5】
上传的附件:
最新回复 (0)
返回
本站所有资源均收集自互联网,没有提供影片资源存储, 也未参与录制、上传,若本站收录的资源无意侵犯了您的权益, 请联系邮箱:gogoimgs#gmail.com(#[email protected])