[2019] [大陆] [悬疑] [纯净版] [秦明·生死语者][WEB-MP4/8.54GB][4K-2160P][法医,悬疑,犯罪,秦明,推理,中国大陆]

uump4 10天前 1245

悠悠MP4_MP4电影下载_[秦明·生死语者][WEB-MP4/8.54GB][4K-2160P][法医,悬疑,犯罪,秦明,推理,中国大陆]

◎译  名 秦明·生死语者 / 生死语者·秦明 / Whisper of Silent Body
◎年  代 2019
◎产  地 中国大陆
◎类  别 悬疑 / 犯罪
◎语  言 汉语普通话
◎上映日期 2019-06-14(中国大陆)
◎IMDb链接 https://www.imdb.com/title/tt10423912/
◎豆瓣评分 4.1/10 (15157人评价)
◎豆瓣链接 https://movie.douban.com/subject/27090753/
◎片  长 104分钟
◎导  演 李海蜀 Haishu Li (id:1321164)
       黄彦威 Yanwei Huang (id:1321340)
◎编  剧 秦明 Ming Qin (id:1404646)
◎演  员 严屹宽 Yikuan Yan (id:1313653)
       代斯 Daisy (id:1361029)
       耿乐 Le Geng (id:1274576)
       郝劭文 Shaowen Hao (id:1314167)
       杜鹃 Juan Du (id:1323516)
       秦明 Ming Qin (id:1404646)
       陈欣淇 Julie Tan (id:1344518)
       吕东 Dong Lv (id:1410768)

◎标  签 法医 / 悬疑 / 犯罪 / 秦明 / 推理 / 中国大陆 / 2019 / 悬念

◎简  介
  影片根据法医秦明小说《尸语者》改编。讲述被誉为“鬼手佛心”的“尸语者”秦明(严屹宽饰)解剖过 1000 多具尸体,从未出错,因意外发现泡在福尔马林里6年的“无语体师”死于他杀,引发媒体质疑误判,被舆论推至风口浪尖之上。在尸体留下的线索指引下,秦明在实习助手嘉嘉(代斯饰)和刑警队长林涛(耿乐饰)的协助调查下发现了尘封 16 年的雪灾杀人案、误判 6 年的“无语体师”他杀案、悬而无果的 IT 男肺炸案背后的秘密。经历了这一系列变故的秦明最终成为了一名“为死者言,为生者权”的“生死语者”。

General
Complete name                            : 秦明·生死语者[email protected]COM.mp4
Format                                   : MPEG-4
Format profile                           : Base Media
Codec ID                                 : isom (isom/iso2/mp41)
File size                                : 8.54 GiB
Duration                                 : 1 h 44 min
Overall bit rate                         : 11.7 Mb/s
Writing application                      : Lavf58.32.104

Video
ID                                       : 1
Format                                   : HEVC
Format/Info                              : High Efficiency Video Coding
Format profile                           : [email protected]@Main
Codec ID                                 : hev1
Codec ID/Info                            : High Efficiency Video Coding
Duration                                 : 1 h 44 min
Bit rate                                 : 11.5 Mb/s
Width                                    : 3 840 pixels
Height                                   : 1 608 pixels
Display aspect ratio                     : 2.40:1
Frame rate mode                          : Constant
Frame rate                               : 24.000 FPS
Color space                              : YUV
Chroma subsampling                       : 4:2:0
Bit depth                                : 8 bits
Bits/(Pixel*Frame)                       : 0.078
Stream size                              : 8.40 GiB (98%)
Codec configuration box                  : hvcC

Audio
ID                                       : 2
Format                                   : AAC LC
Format/Info                              : Advanced Audio Codec Low Complexity
Codec ID                                 : mp4a-40-2
Duration                                 : 1 h 44 min
Bit rate mode                            : Constant
Bit rate                                 : 192 kb/s
Channel(s)                               : 2 channels
Channel layout                           : L R
Sampling rate                            : 44.1 kHz
Frame rate                               : 43.066 FPS (1024 SPF)
Compression mode                         : Lossy
Stream size                              : 142 MiB (2%)
Default                                  : Yes
Alternate group                          : 1


悠悠MP4_MP4电影下载_[秦明·生死语者][WEB-MP4/8.54GB][4K-2160P][法医,悬疑,犯罪,秦明,推理,中国大陆]

提示:如迅雷下载提示"任务出错"、"因版权无法下载",请尝试【迅雷5】
上传的附件:
最新回复 (0)
返回
本站所有资源均收集自互联网,没有提供影片资源存储, 也未参与录制、上传,若本站收录的资源无意侵犯了您的权益, 请联系邮箱:gogoimgs#gmail.com(#[email protected])