[2019] [大陆] [剧情] [纯净版] [你是凶手][WEB-MP4/9.55GB][4K-2160P][犯罪,悬疑,推理,中国大陆,翻拍,剧情]

uump4 10天前 1012

悠悠MP4_MP4电影下载_[你是凶手][WEB-MP4/9.55GB][4K-2160P][犯罪,悬疑,推理,中国大陆,翻拍,剧情]

◎译  名 你是凶手 / 迷局英雄 / The Guilty Ones / The Convicted
◎年  代 2019
◎产  地 中国大陆
◎类  别 剧情 / 悬疑 / 犯罪
◎语  言 汉语普通话
◎上映日期 2019-11-22(中国大陆)
◎IMDb链接 https://www.imdb.com/title/tt10097530/
◎豆瓣评分 5.6/10 (38230人评价)
◎豆瓣链接 https://movie.douban.com/subject/26762744/
◎片  长 94分钟
◎导  演 王昱 Yu Wang (id:1300412)
◎编  剧 杜语 Yu Du (id:1357485)
◎演  员 王千源 Qianyuan Wang (id:1314827)
       宋佳 Jia Song (id:1042341)
       冯远征 Yuanzheng Feng (id:1043136)
       李九霄 Jiuxiao Li (id:1330992)
       何沄伟 Yunwei He (id:1313982)
       石凉 Liang Shi (id:1313009)
       张诣文含 Yiwenhan Zhang (id:1429675)
       韩璐 Liz Han (id:1453964)
       王昱 Yu Wang (id:1300412)
       杨江 Jiang Yang (id:1351381)
       赵楠 Nan Zhao (id:1325307)

◎标  签 犯罪 / 悬疑 / 推理 / 中国大陆 / 翻拍 / 剧情 / 2019 / 人性

◎简  介
  10年前,白兰(宋佳 饰)女儿铃铛被绑架并意外身亡,重案组警官陈浩(王千源 饰)许诺孩子母亲一定将凶手绳之以法。无奈经过漫长的追查却一无所获,陈浩带着遗憾离开警队。10年后,陈浩偶然间发现新线索,身患绝症的白兰重拾希望,决心为女寻凶,两人展开调查并发现了罪犯留下的蛛丝马迹。与此同时,李爱军(冯远征 饰)外孙女也遭人绑架,绑架手法跟10年前如出一辙,面对狡猾的嫌犯,陈浩和白兰能否抓到凶手,一偿夙愿…

General
Complete name                            : 你是凶手[email protected]
Format                                   : MPEG-4
Format profile                           : Base Media
Codec ID                                 : isom (isom/iso2/mp41)
File size                                : 9.55 GiB
Duration                                 : 1 h 33 min
Overall bit rate                         : 14.6 Mb/s
Writing application                      : Lavf58.32.104

Video
ID                                       : 1
Format                                   : HEVC
Format/Info                              : High Efficiency Video Coding
Format profile                           : [email protected]@Main
Codec ID                                 : hev1
Codec ID/Info                            : High Efficiency Video Coding
Duration                                 : 1 h 33 min
Bit rate                                 : 14.4 Mb/s
Width                                    : 3 840 pixels
Height                                   : 1 608 pixels
Display aspect ratio                     : 2.40:1
Frame rate mode                          : Constant
Frame rate                               : 24.000 FPS
Color space                              : YUV
Chroma subsampling                       : 4:2:0
Bit depth                                : 8 bits
Bits/(Pixel*Frame)                       : 0.097
Stream size                              : 9.42 GiB (99%)
Codec configuration box                  : hvcC

Audio
ID                                       : 2
Format                                   : AAC LC
Format/Info                              : Advanced Audio Codec Low Complexity
Codec ID                                 : mp4a-40-2
Duration                                 : 1 h 33 min
Bit rate mode                            : Constant
Bit rate                                 : 192 kb/s
Channel(s)                               : 2 channels
Channel layout                           : L R
Sampling rate                            : 44.1 kHz
Frame rate                               : 43.066 FPS (1024 SPF)
Compression mode                         : Lossy
Stream size                              : 127 MiB (1%)
Default                                  : Yes
Alternate group                          : 1


悠悠MP4_MP4电影下载_[你是凶手][WEB-MP4/9.55GB][4K-2160P][犯罪,悬疑,推理,中国大陆,翻拍,剧情]

提示:如迅雷下载提示"任务出错"、"因版权无法下载",请尝试【迅雷5】
上传的附件:
最新回复 (0)
返回
本站所有资源均收集自互联网,没有提供影片资源存储, 也未参与录制、上传,若本站收录的资源无意侵犯了您的权益, 请联系邮箱:gogoimgs#gmail.com(#[email protected])