[更早] [欧美] [剧情] [纯净版] [散弹露露][BD-MKV/13.15GB][中文字幕][1080P][美国,公路,喜剧,美国电影,爱情]

uump4 10天前 877

悠悠MP4_MP4电影下载_[散弹露露][BD-MKV/13.15GB][中文字幕][1080P][美国,公路,喜剧,美国电影,爱情]

◎译  名 散弹露露 / 艳遇 / 野性的邂逅(港)
◎片  名 Something Wild
◎年  代 1986
◎产  地 美国
◎类  别 剧情 / 喜剧 / 犯罪
◎语  言 英语
◎上映日期 1986-11-07(美国)
◎IMDb链接 https://www.imdb.com/title/tt0091983/
◎豆瓣评分 7.4/10 (1394人评价)
◎豆瓣链接 https://movie.douban.com/subject/1301827/
◎片  长 113分钟
◎导  演 乔纳森·戴米 Jonathan Demme (id:1032064)
◎编  剧 E·马克斯·弗莱 E. Max Frye (id:1323059)
◎演  员 杰夫·丹尼尔斯 Jeff Daniels (id:1006974)
      梅兰尼·格里菲斯 Melanie Griffith (id:1025204)
      雷·利奥塔 Ray Liotta (id:1036326)
      莱布·兰斯基 Leib Lensky (id:1118793)
      崔西·沃特 Tracey Walter (id:1164847)
      罗伯特·雷吉利 Robert Ridgely (id:1016737)
      爱德华·萨克森 Edward Saxon (id:1296791)
      狗狗马克思 Max the Dog (id:1440695)
      巴兹·基尔曼 Buzz Kilman (id:1114098)
      肯尼思·厄特 Kenneth Utt (id:1010139)
      玛格丽特·柯林 Margaret Colin (id:1018028)
      约翰·塞尔斯 John Sayles (id:1027929)
      查尔斯·纳佩尔 Charles Napier (id:1002794)
      阿德尔·卢茨 Adelle Lutz (id:1041463)
      加里·高兹曼 Gary Goetzman (id:1041545)
      约翰·沃特斯 John Waters (id:1048178)
      安娜·莱文 Anna Levine (id:1049843)
      Patricia Falkenhain Patricia Falkenhain (id:1081214)
      'Sister' Carol East 'Sister' Carol East (id:1085772)
      Drummond Erskine Drummond Erskine (id:1086057)
      Dorothy Demme Dorothy Demme (id:1087548)
      杰克·吉尔平 Jack Gilpin (id:1101385)
      比尔·米勒 Bill Miller (id:1292071)
      罗纳德·M·博兹曼 Ronald M. Bozman (id:1279124)
      乔纳森·戴米 Jonathan Demme (id:1032064)
      肯尼思·厄特 Kenneth Utt (id:1010139)
      爱德华·萨克森 Edward Saxon (id:1296791)
      约翰·凯尔 John Cale (id:1032670)
      劳瑞·安德森 Laurie Anderson (id:1018622)
      塔克·藤本 Tak Fujimoto (id:1009829)
      克雷格·麦凯 Craig McKay (id:1291636)
      比利·霍普金斯 Billy Hopkins (id:1054463)
      里萨·布雷蒙·加西亚 Risa Bramon Garcia (id:1284503)
      Stephen J. Lineweaver Stephen J. Lineweaver (id:1290086)
      Norma Moriceau Norma Moriceau (id:1292511)
      艾兰·丹格里奥 Alan D'Angerio (id:1281682)
      大卫·萨迪 David Sardi (id:1296704)
      罗纳德·M·博兹曼 Ronald M. Bozman (id:1279124)
      Kyle McCarthy Kyle McCarthy (id:1291459)
      Dana J. Kuznetzkoff Dana J. Kuznetzkoff (id:1289146)

◎标  签 美国 / 公路 / 喜剧 / 美国电影 / 爱情 / 1980s / CC / 1986

◎简  介
  杰夫·丹尼尔斯在片中饰演个性保守的雅痞行政人员,偶然到餐厅吃午饭,碰到狂野女郎梅拉尼·格里菲思。她把他带到汽车旅馆展开激情游戏,令他大感意外。然而接下来的一段放荡不羁的刺激遭遇,更是令他惊喜交集,整个改变了他的人生。

General
Unique ID : 72315583266491245740365168030953839953 (0x36677987A291B4E4B866A16437851D51)
Complete name : [email protected]kv
Format : Matroska
Format version : Version 4
File size : 13.2 GiB
Duration : 1 h 53 min
Overall bit rate : 16.5 Mb/s
Encoded date : UTC 2021-07-20 01:20:02
Writing application : mkvmerge v56.1.0 ('My Friend') 64-bit
Writing library : libebml v1.4.2 + libmatroska v1.6.4

Video
ID : 1
Format : AVC
Format/Info : Advanced Video Codec
Format profile : [email protected]
Format settings : CABAC / 4 Ref Frames
Format settings, CABAC : Yes
Format settings, Reference frames : 4 frames
Codec ID : V_MPEG4/ISO/AVC
Duration : 1 h 53 min
Bit rate : 15.0 Mb/s
Width : 1 920 pixels
Height : 1 080 pixels
Display aspect ratio : 16:9
Frame rate mode : Constant
Frame rate : 23.976 (24000/1001) FPS
Color space : YUV
Chroma subsampling : 4:2:0
Bit depth : 8 bits
Scan type : Progressive
Bits/(Pixel*Frame) : 0.301
Stream size : 11.9 GiB (91%)
Writing library : x264 core 161 r3048+53M 0749c36 t_mod_New [(8 & 10)[email protected] X86_64]
Encoding settings : cabac=1 / ref=4 / deblock=1:-3:-3 / analyse=0x3:0x133 / me=umh / subme=11 / psy=1 / fade_compensate=0.00 / psy_rd=1.00:0.00 / mixed_ref=1 / me_range=48 / chroma_me=1 / trellis=2 / 8x8dct=1 / cqm=0 / deadzone=21,11 / fast_pskip=0 / chroma_qp_offset=-3 / threads=24 / lookahead_threads=2 / sliced_threads=0 / nr=0 / decimate=0 / interlaced=0 / bluray_compat=0 / constrained_intra=0 / fgo=0 / bframes=6 / b_pyramid=2 / b_adapt=2 / b_bias=0 / direct=3 / weightb=1 / open_gop=0 / weightp=2 / keyint=240 / keyint_min=1 / scenecut=40 / intra_refresh=0 / rc_lookahead=72 / rc=crf / mbtree=0 / crf=20.3000 / qcomp=0.60 / qpmin=0:0:0 / qpmax=69:69:69 / qpstep=4 / vbv_maxrate=62500 / vbv_bufsize=78125 / crf_max=0.0 / nal_hrd=none / filler=0 / ip_ratio=1.40 / pb_ratio=1.30 / aq=3:0.70 / aq-sensitivity=10.00 / aq-factor=1.00:1.00:1.00 / aq2=0 / aq3=0
Language : English
Default : Yes
Forced : No

Audio
ID : 2
Format : DTS
Format/Info : Digital Theater Systems
Codec ID : A_DTS
Duration : 1 h 53 min
Bit rate mode : Constant
Bit rate : 1 509 kb/s
Channel(s) : 2 channels
Channel layout : Lt Rt
Sampling rate : 48.0 kHz
Frame rate : 93.750 FPS (512 SPF)
Bit depth : 24 bits
Compression mode : Lossy
Stream size : 1.20 GiB (9%)
Title : eng
Language : English
Default : Yes
Forced : No

Text #1
ID : 3
Format : PGS
Muxing mode : zlib
Codec ID : S_HDMV/PGS
Codec ID/Info : Picture based subtitle format used on BDs/HD-DVDs
Duration : 1 h 50 min
Bit rate : 22.0 kb/s
Count of elements : 2607
Stream size : 17.4 MiB (0%)
Title : chs
Language : Chinese
Default : Yes
Forced : No

Text #2
ID : 4
Format : PGS
Muxing mode : zlib
Codec ID : S_HDMV/PGS
Codec ID/Info : Picture based subtitle format used on BDs/HD-DVDs
Duration : 1 h 50 min
Bit rate : 22.2 kb/s
Count of elements : 2607
Stream size : 17.6 MiB (0%)
Title : cht
Language : Chinese
Default : No
Forced : No

Text #3
ID : 5
Format : PGS
Muxing mode : zlib
Codec ID : S_HDMV/PGS
Codec ID/Info : Picture based subtitle format used on BDs/HD-DVDs
Duration : 1 h 51 min
Bit rate : 56.3 kb/s
Count of elements : 3758
Stream size : 44.7 MiB (0%)
Title : eng
Language : English
Default : No
Forced : No

Menu
00:00:00.000 : 第 01 章
00:03:13.610 : 第 02 章
00:08:01.230 : 第 03 章
00:09:31.654 : 第 04 章
00:12:30.541 : 第 05 章
00:19:10.691 : 第 06 章
00:20:42.282 : 第 07 章
00:24:07.070 : 第 08 章
00:27:41.409 : 第 09 章
00:30:54.060 : 第 10 章
00:32:50.343 : 第 11 章
00:35:40.179 : 第 12 章
00:38:35.396 : 第 13 章
00:45:03.534 : 第 14 章
00:48:39.708 : 第 15 章
00:50:43.582 : 第 16 章
00:53:01.219 : 第 17 章
00:55:09.431 : 第 18 章
01:01:04.744 : 第 19 章
01:04:28.948 : 第 20 章
01:11:29.868 : 第 21 章
01:15:55.175 : 第 22 章
01:21:03.525 : 第 23 章
01:27:13.686 : 第 24 章
01:33:33.983 : 第 25 章
01:42:11.583 : 第 26 章
01:48:04.060 : 第 27 章


悠悠MP4_MP4电影下载_[散弹露露][BD-MKV/13.15GB][中文字幕][1080P][美国,公路,喜剧,美国电影,爱情]
提示:如迅雷下载提示"任务出错"、"因版权无法下载",请尝试【迅雷5】
上传的附件:
最新回复 (0)
返回
本站所有资源均收集自互联网,没有提供影片资源存储, 也未参与录制、上传,若本站收录的资源无意侵犯了您的权益, 请联系邮箱:gogoimgs#gmail.com(#[email protected])