[2015] [香港] [剧情] [纯净版] [赤道][BD-MKV/16.60GB][国粤语音轨/中文字幕][4K-2160P][HDR版本][犯罪,香港,香港电影,动作,张家辉,张学友]

uump4 10天前 997

悠悠MP4_MP4电影下载_[赤道][BD-MKV/16.60GB][国粤语音轨/中文字幕][4K-2160P][HDR版本][犯罪,香港,香港电影,动作,张家辉,张学友]

◎译  名 赤道 / 大峡谷 / 赤盗 / Helios
◎年  代 2015
◎产  地 中国香港
◎类  别 剧情 / 动作 / 悬疑 / 犯罪
◎语  言 汉语普通话 / 粤语 / 韩语 / 英语
◎上映日期 2015-04-30(中国大陆/中国香港)
◎IMDb链接 https://www.imdb.com/title/tt3614922/
◎豆瓣评分 6.2/10 (103227人评价)
◎豆瓣链接 https://movie.douban.com/subject/24987018/
◎片  长 119分钟
◎导  演 梁乐民 Lok Man Leung (id:1318764)
       陆剑青 Kim-ching Luk (id:1318745)
◎编  剧 梁乐民 Lok Man Leung (id:1318764)
       陆剑青 Kim-ching Luk (id:1318745)
◎演  员 张学友 Jacky Cheung (id:1012563)
       张家辉 Nick Cheung (id:1037273)
       余文乐 Shawn Yue (id:1041510)
       王学圻 Xueqi Wang (id:1054562)
       文咏珊 Janice Man (id:1275670)
       池珍熙 Jin-hee Ji (id:1010449)
       崔始源 Si-won Choi (id:1240451)
       尹贞伊 Jin-Yi Yoon  (id:1320362)
       顾美华 Josephine Koo (id:1288879)
       冯文娟 Wenjuan Feng (id:1325753)
       张震 Chen Chang (id:1077991)
       朱千雪 Tracy Chu (id:1336716)
       金海淑 Hae-suk Kim (id:1015294)
       李泰兰 Tae-ran Lee (id:1002615)
       谈善言 Hedwig Tam (id:1366380)
       方保罗 Paul Fonoroff (id:1325637)
       奇周峯 Joo-bong Ki (id:1051277)
       尹真伊 Jin-yi Yoon (id:1344120)
       袁富华 Fu-wah Yuen (id:1359508)
       狼森 Philippe Joly (id:1347734)
       麦克·里德 Mike Leeder (id:1382791)
       何伟业 Wai-Yip Ho (id:1363760)
       黄婉曼 Icy  Wong (id:1378635)
       陈振华 Ricky Chan (id:1382205)
       林建岳 Peter Lam (id:1340495)
       李菲 Fei Li (id:1400568)
       周绰华 Alvin Chow (id:1425958)
       何丽嫦 Lorraine Ho (id:1418364)
       金培达 Peter Kam (id:1288082)
       关智耀 Jason Kwan Chi-Yiu (id:1318237)
       陈忠明 Ron Chan (id:1328027)
       阚家伟 Ka-Wai Kam (id:1360179)

◎标  签 犯罪 / 香港 / 香港电影 / 动作 / 张家辉 / 张学友 / 张震 / 2015

◎简  介
  韩国秘密核武器神秘失踪,同时载着军方手提装置的飞机在中国境内坠毁。韩方接到消息,一名疑似绰号“赤道”的危险人物(张震 饰)带着助手“信差”(文咏珊 饰)将于香港实行秘密武器交易,韩国武器专家崔民号(池珍熙 饰)与特工朴宇哲(崔始源 饰)奉命前往调查。香港反恐特勤组主管李彦 明(张家辉 饰)与督察范家明(余文乐 饰)协助韩方寻找武器,而核物理教授肇志仁(张学友 饰)也受邀协助判案。武器很快被寻回,没想到竟还隐藏着潜在危机。正当香港及韩国警方决定送还武器回韩国之际,大陆安全局高管(王学圻 饰)带着助手袁小姐(冯文娟 饰)突然出现,三方陷入周旋之中,原来“赤道”另有其人,而他们一伙儿的阴谋也开始实施……

◎获奖情况 (共2项)
  第35届香港电影金像奖 (2016)
  最佳女配角(提名)
   └──文咏珊 (id:1275670)
  最佳动作设计(提名)

General
Unique ID                                : 172416564385012782094430436560484752780 (0x81B638F0E4CB688EFD6E8DFC6580DD8C)
Complete name                            : Helios.201[email protected]BBQDDQ.COM.mkv
Format                                   : Matroska
Format version                           : Version 4
File size                                : 16.6 GiB
Duration                                 : 1 h 58 min
Overall bit rate mode                    : Variable
Overall bit rate                         : 20.1 Mb/s
Movie name                               : Helios 2015 2160p HDR UHD BluRay TrueHD 7.1 Atmos 2Audio [email protected]
Encoded date                             : UTC 2021-07-20 00:20:18
Writing application                      : mkvmerge v38.0.0 ('The Silent Type') 64-bit
Writing library                          : libebml v1.3.9 + libmatroska v1.5.2

Video
ID                                       : 1
Format                                   : HEVC
Format/Info                              : High Efficiency Video Coding
Format profile                           : Main [email protected]@High
HDR format                               : SMPTE ST 2086, HDR10 compatible
Codec ID                                 : V_MPEGH/ISO/HEVC
Duration                                 : 1 h 58 min
Bit rate                                 : 12.6 Mb/s
Width                                    : 3 840 pixels
Height                                   : 1 600 pixels
Display aspect ratio                     : 2.40:1
Frame rate mode                          : Constant
Frame rate                               : 24.000 FPS
Color space                              : YUV
Chroma subsampling                       : 4:2:0
Bit depth                                : 10 bits
Bits/(Pixel*Frame)                       : 0.086
Stream size                              : 10.4 GiB (63%)
Title                                    : @HDSky
Writing library                          : x265 - H.265/HEVC codec
Default                                  : Yes
Forced                                   : No
Color range                              : Limited
Color primaries                          : BT.2020
Transfer characteristics                 : PQ
Matrix coefficients                      : BT.2020 non-constant
Mastering display color primaries        : BT.2020
Mastering display luminance              : min: 0.0020 cd/m2, max: 1000 cd/m2
Maximum Content Light Level              : 739 cd/m2
Maximum Frame-Average Light Level        : 331 cd/m2

Audio #1
ID                                       : 2
Format                                   : MLP FBA 16-ch
Format/Info                              : Meridian Lossless Packing FBA with 16-channel presentation
Commercial name                          : Dolby TrueHD with Dolby Atmos
Codec ID                                 : A_TRUEHD
Duration                                 : 1 h 58 min
Bit rate mode                            : Variable
Bit rate                                 : 4 288 kb/s
Maximum bit rate                         : 8 955 kb/s
Channel(s)                               : 8 channels
Channel layout                           : L R C LFE Ls Rs Lb Rb
Sampling rate                            : 48.0 kHz
Frame rate                               : 1 200.000 FPS (40 SPF)
Compression mode                         : Lossless
Stream size                              : 3.55 GiB (21%)
Title                                    : Cantonese
Language                                 : Chinese
Default                                  : Yes
Forced                                   : No
Number of dynamic objects                : 11
Bed channel count                        : 1 channel
Bed channel configuration                : LFE

Audio #2
ID                                       : 3
Format                                   : MLP FBA
Format/Info                              : Meridian Lossless Packing FBA
Commercial name                          : Dolby TrueHD
Codec ID                                 : A_TRUEHD
Duration                                 : 1 h 58 min
Bit rate mode                            : Variable
Bit rate                                 : 2 989 kb/s
Maximum bit rate                         : 6 792 kb/s
Channel(s)                               : 6 channels
Channel layout                           : L R C LFE Ls Rs
Sampling rate                            : 96.0 kHz
Frame rate                               : 1 200.000 FPS (80 SPF)
Compression mode                         : Lossless
Stream size                              : 2.47 GiB (15%)
Title                                    : Mandarin
Language                                 : Chinese
Default                                  : No
Forced                                   : No

Text #1
ID                                       : 4
Format                                   : PGS
Muxing mode                              : zlib
Codec ID                                 : S_HDMV/PGS
Codec ID/Info                            : Picture based subtitle format used on BDs/HD-DVDs
Duration                                 : 1 h 51 min
Bit rate                                 : 25.3 kb/s
Count of elements                        : 2018
Stream size                              : 20.1 MiB (0%)
Title                                    : CHT
Language                                 : Chinese
Default                                  : Yes
Forced                                   : No

Text #2
ID                                       : 5
Format                                   : PGS
Muxing mode                              : zlib
Codec ID                                 : S_HDMV/PGS
Codec ID/Info                            : Picture based subtitle format used on BDs/HD-DVDs
Duration                                 : 1 h 51 min
Bit rate                                 : 23.5 kb/s
Count of elements                        : 2018
Stream size                              : 18.7 MiB (0%)
Title                                    : CHS
Language                                 : Chinese
Default                                  : No
Forced                                   : No

Menu
00:00:00.000                             : en:Chapter 01
00:06:54.958                             : en:Chapter 02
00:12:32.208                             : en:Chapter 03
00:18:17.500                             : en:Chapter 04
00:23:26.750                             : en:Chapter 05
00:32:46.542                             : en:Chapter 06
00:39:35.708                             : en:Chapter 07
00:44:44.042                             : en:Chapter 08
00:51:48.708                             : en:Chapter 09
00:54:14.083                             : en:Chapter 10
01:00:17.875                             : en:Chapter 11
01:07:03.958                             : en:Chapter 12
01:12:50.708                             : en:Chapter 13
01:18:10.167                             : en:Chapter 14
01:23:27.625                             : en:Chapter 15
01:30:09.708                             : en:Chapter 16
01:36:10.792                             : en:Chapter 17
01:41:18.333                             : en:Chapter 18
01:49:25.500                             : en:Chapter 19
01:54:38.250                             : en:Chapter 20


悠悠MP4_MP4电影下载_[赤道][BD-MKV/16.60GB][国粤语音轨/中文字幕][4K-2160P][HDR版本][犯罪,香港,香港电影,动作,张家辉,张学友]

提示:如迅雷下载提示"任务出错"、"因版权无法下载",请尝试【迅雷5】
上传的附件:
最新回复 (2)
  • vivilee 10天前
    2
    文咏珊拿着蠍式真帅。
  • kimubooru 9天前
    3
    謝謝分享⋯⋯
返回
本站所有资源均收集自互联网,没有提供影片资源存储, 也未参与录制、上传,若本站收录的资源无意侵犯了您的权益, 请联系邮箱:gogoimgs#gmail.com(#[email protected])