[2020] [欧美] [剧情] [纯净版] [新王加冕][BD-MKV/13.29GB][双语字幕][4K-2160P][HDR版本][柔术,动作,美国,拳击,美国电影]

uump4 10天前 809

悠悠MP4_MP4电影下载_[新王加冕][BD-MKV/13.29GB][双语字幕][4K-2160P][HDR版本][柔术,动作,美国,拳击,美国电影]

◎译  名 新王加冕 / Mickey Kelley
◎片  名 Born a Champion
◎年  代 2020
◎产  地 美国
◎类  别 剧情 / 传记 / 运动
◎语  言 英语
◎上映日期 2021-01-22(美国)
◎IMDb链接 https://www.imdb.com/title/tt10661710/
◎豆瓣评分 7.6/10 (1436人评价)
◎豆瓣链接 https://movie.douban.com/subject/34884701/
◎片  长 112分钟
◎导  演 亚历克斯兰阿瑞佛罗 Alex Ranarivelo (id:1304051)
◎编  剧 肖恩·派特里克·弗兰纳里 Sean Patrick Flanery (id:1027166)
       亚历克斯兰阿瑞佛罗 Alex Ranarivelo (id:1304051)
◎演  员 肖恩·派特里克·弗兰纳里 Sean Patrick Flanery (id:1027166)
       莫里斯·孔特 Maurice Compte (id:1331640)
       卡特里娜·宝登 Katrina Bowden (id:1049568)
       丹尼斯·奎德 Dennis Quaid (id:1002679)
       雷诺·维尔森 Reno Wilson (id:1004780)
       库里·格拉汉姆 Currie Graham (id:1101386)
       科斯塔斯·曼迪勒 Costas Mandylor (id:1049669)
       埃德森?巴博萨 Edson Barboza (id:1450714)
       米奇?高尔 Mickey Gall (id:1450713)
       阿里·阿夫沙尔 Ali Afshar (id:1274728)
       克里斯汀·基默 Christine Kilmer (id:1423180)
       保罗J艾乐西 Paul J. Alessi (id:1307610)
       伦佐·格雷西 Renzo Gracie (id:1389702)
       马歇尔·菲尔 Marshelle Fair (id:1375998)
       威廉·W·巴伯 William W. Barbour (id:1393373)
       Joe Mahon Joe Mahon (id:1217480)

◎标  签 柔术 / 动作 / 美国 / 拳击 / 美国电影 / 2021 / 电影 / mma

◎简  介
  米基·凯利,巴西柔术界第一批美国黑带选手之一,他远离了他所热爱的一切,参加了一场未经批准的MMA锦标赛。

General
Unique ID                                : 215369280359487508028237841172295086249 (0xA2069D576101A116BAFC811BEF0C70A9)
Complete name                            : Born.a.Ch[email protected]BBQDDQ.COM.mkv
Format                                   : Matroska
Format version                           : Version 4
File size                                : 13.3 GiB
Duration                                 : 1 h 51 min
Overall bit rate mode                    : Variable
Overall bit rate                         : 17.1 Mb/s
Movie name                               : Born a Champion 2021 2160p HDR UHD BluRay DTS-HD MA 5.1 [email protected]
Encoded date                             : UTC 2021-07-19 04:04:04
Writing application                      : mkvmerge v38.0.0 ('The Silent Type') 64-bit
Writing library                          : libebml v1.3.9 + libmatroska v1.5.2

Video
ID                                       : 1
Format                                   : HEVC
Format/Info                              : High Efficiency Video Coding
Format profile                           : Main [email protected]@High
HDR format                               : SMPTE ST 2086, HDR10 compatible
Codec ID                                 : V_MPEGH/ISO/HEVC
Duration                                 : 1 h 51 min
Bit rate                                 : 15.2 Mb/s
Width                                    : 3 840 pixels
Height                                   : 1 600 pixels
Display aspect ratio                     : 2.40:1
Frame rate mode                          : Constant
Frame rate                               : 23.976 (24000/1001) FPS
Color space                              : YUV
Chroma subsampling                       : 4:2:0
Bit depth                                : 10 bits
Bits/(Pixel*Frame)                       : 0.103
Stream size                              : 11.8 GiB (89%)
Title                                    : @HDSky
Writing library                          : x265 - H.265/HEVC codec
Default                                  : Yes
Forced                                   : No
Color range                              : Limited
Color primaries                          : BT.2020
Transfer characteristics                 : PQ
Matrix coefficients                      : BT.2020 non-constant
Mastering display color primaries        : Display P3
Mastering display luminance              : min: 0.0020 cd/m2, max: 1000 cd/m2
Maximum Content Light Level              : 739 cd/m2
Maximum Frame-Average Light Level        : 331 cd/m2

Audio
ID                                       : 2
Format                                   : DTS XLL
Format/Info                              : Digital Theater Systems
Commercial name                          : DTS-HD Master Audio
Codec ID                                 : A_DTS
Duration                                 : 1 h 51 min
Bit rate mode                            : Variable
Bit rate                                 : 1 812 kb/s
Channel(s)                               : 6 channels
Channel layout                           : C L R Ls Rs LFE
Sampling rate                            : 48.0 kHz
Frame rate                               : 93.750 FPS (512 SPF)
Bit depth                                : 16 bits
Compression mode                         : Lossless
Stream size                              : 1.41 GiB (11%)
Title                                    : English
Language                                 : English
Default                                  : Yes
Forced                                   : No

Text #1
ID                                       : 3
Format                                   : PGS
Muxing mode                              : zlib
Codec ID                                 : S_HDMV/PGS
Codec ID/Info                            : Picture based subtitle format used on BDs/HD-DVDs
Duration                                 : 1 h 46 min
Bit rate                                 : 47.0 kb/s
Count of elements                        : 2285
Stream size                              : 35.9 MiB (0%)
Title                                    : CHS
Language                                 : Chinese
Default                                  : Yes
Forced                                   : No

Text #2
ID                                       : 4
Format                                   : PGS
Muxing mode                              : zlib
Codec ID                                 : S_HDMV/PGS
Codec ID/Info                            : Picture based subtitle format used on BDs/HD-DVDs
Duration                                 : 1 h 46 min
Bit rate                                 : 48.0 kb/s
Count of elements                        : 2285
Stream size                              : 36.7 MiB (0%)
Title                                    : CHT
Language                                 : Chinese
Default                                  : No
Forced                                   : No

Text #3
ID                                       : 5
Format                                   : PGS
Muxing mode                              : zlib
Codec ID                                 : S_HDMV/PGS
Codec ID/Info                            : Picture based subtitle format used on BDs/HD-DVDs
Duration                                 : 1 h 46 min
Bit rate                                 : 74.6 kb/s
Count of elements                        : 2285
Stream size                              : 57.1 MiB (0%)
Title                                    : CHS&ENG
Language                                 : Chinese
Default                                  : No
Forced                                   : No

Text #4
ID                                       : 6
Format                                   : PGS
Muxing mode                              : zlib
Codec ID                                 : S_HDMV/PGS
Codec ID/Info                            : Picture based subtitle format used on BDs/HD-DVDs
Duration                                 : 1 h 46 min
Bit rate                                 : 75.7 kb/s
Count of elements                        : 2285
Stream size                              : 57.9 MiB (0%)
Title                                    : CHT&ENG
Language                                 : Chinese
Default                                  : No
Forced                                   : No

Menu
00:00:00.000                             : en:Chapter 01
00:07:43.588                             : en:Chapter 02
00:16:48.923                             : en:Chapter 03
00:26:38.762                             : en:Chapter 04
00:34:39.702                             : en:Chapter 05
00:42:50.108                             : en:Chapter 06
00:52:11.293                             : en:Chapter 07
01:00:38.885                             : en:Chapter 08
01:07:41.639                             : en:Chapter 09
01:19:44.069                             : en:Chapter 10
01:30:05.858                             : en:Chapter 11
01:40:18.761                             : en:Chapter 12


悠悠MP4_MP4电影下载_[新王加冕][BD-MKV/13.29GB][双语字幕][4K-2160P][HDR版本][柔术,动作,美国,拳击,美国电影]

提示:如迅雷下载提示"任务出错"、"因版权无法下载",请尝试【迅雷5】
上传的附件:
最新回复 (0)
返回
本站所有资源均收集自互联网,没有提供影片资源存储, 也未参与录制、上传,若本站收录的资源无意侵犯了您的权益, 请联系邮箱:gogoimgs#gmail.com(#[email protected])