[2021] [大陆] [剧情] [纯净版] [超越][WEB-MKV/1.52GB][1080P][励志,运动,体育,体育生,跑步,短跑]

uump4 10天前 363

悠悠MP4_MP4电影下载_[超越][WEB-MKV/1.52GB][1080P][励志,运动,体育,体育生,跑步,短跑]

◎译  名 超越 / 极速超越 / Never Stop
◎年  代 2021
◎产  地 中国大陆
◎类  别 剧情 / 喜剧 / 运动
◎语  言 汉语普通话
◎上映日期 2021-06-12(中国大陆)
◎IMDb链接 https://www.imdb.com/title/tt14778138/
◎豆瓣评分 5.2/10 (13190人评价)
◎豆瓣链接 https://movie.douban.com/subject/34917447/
◎片  长 98分钟
◎导  演 韩博文 Bowen Han (id:1378773)
◎编  剧 甲子复 Zifu Jia (id:1455382)
◎演  员 郑恺 Kai Zheng (id:1275564)
       李昀锐 Lin (id:1390859)
       曹炳琨 Bingkun Cao (id:1313383)
       张蓝心 Lanxin Zhang (id:1324267)
       张榕容 Sandrine Pinna (id:1226703)
       李晨 Chen Li (id:1274252)
       金靖 Jing Jin (id:1376274)
       李宁 Ning Li (id:1052811)
       田雨 Yu Tian (id:1316331)
       范志毅 Zhiyi Fan (id:1319964)
       郑恺 Kai Zheng (id:1275564)
       王中军 Zhongjun Wang (id:1276036)
       黄永峰 Yongfeng Huang (id:1455383)
       白雪 Xue Bai (id:1455384)
       李捷 Jie Li (id:1403835)
       张勇 Yong Zhang (id:1417892)
       丁颂易 Songyi Ding (id:1455385)
       王中磊 Zhonglei Wang (id:1276037)
       张大军 Dajun Zhang (id:1412558)
       孙赫 He Sun (id:1455386)
       卢希 Xi Lu (id:1455387)
       葛倩雯 Qianwen Ge (id:1455388)
       程倩 Qian Cheng (id:1455389)
       邓志玲 Zhiling Deng (id:1455390)
       田鸿硕 Hongshuo Tian (id:1455391)
       周欣 Xin Zhou (id:1455392)
       王翎霁 Lingji Wang (id:1455395)
       耿磊 Lei Geng (id:1455396)
       董冬冬 Dongdong Dong (id:1348747)
       刘帆 Fan Liu (id:1455397)
       王媛 Yuan Wang (id:1455399)
       王竞 Jing Wang (id:1409414)
       于晓溪 Xiaoxi Yu (id:1455398)
       吴佰嶬 Baiyi Wu (id:1455401)
       李牧衡 Muheng Li (id:1455402)
       郑希 Xi Zheng (id:1384856)
       郭宏伟 Hongwei Guo (id:1455400)
       王冲 Chong Wang (id:1388363)
       宋鹏 Peng Song (id:1455404)
       张壹鸣 Yiming Zhang (id:1455405)
       孙景岩 Jingyan Sun (id:1371119)
       袁国强 Guoqiang Yuan (id:1455406)
       许艺军 Yijun Xu (id:1455407)
       李稳能 Wenneng Li (id:1455408)

◎标  签 励志 / 运动 / 体育 / 体育生 / 跑步 / 短跑 / 田径 / 中国大陆

◎简  介
  百米冠军吴添翼(李昀锐 饰)为解开无法战胜老飞人郝超越(郑恺 饰)的心结而返乡,不料郝超越早已沉沦,逃避最爱的跑步事业,更处心积虑利用吴添翼谋利。师兄弟二人的较量从回忆中的跑道延伸进现实生活,历经误会和冲突,最终冰释前嫌并互相治愈······

◎获奖情况 (共1项)
  第24届上海国际电影节 (2021)
  电影频道传媒大奖 最受传媒关注新人男演员
   └──李昀锐 (id:1390859)

General
Unique ID                                : 227660388563281032342433618423384645139 (0xAB45CBC347AB19B45EBCA12F02801E13)
Complete name                            : 超越.Never [email protected]
Format                                   : Matroska
Format version                           : Version 4
File size                                : 1.52 GiB
Duration                                 : 1 h 37 min
Overall bit rate                         : 2 237 kb/s
Encoded date                             : UTC 2021-07-18 15:15:16
Writing application                      : mkvmerge v58.0.0 ('Supper's Ready') 64-bit
Writing library                          : libebml v1.4.2 + libmatroska v1.6.4

Video
ID                                       : 1
Format                                   : AVC
Format/Info                              : Advanced Video Codec
Format profile                           : [email protected]
Format settings                          : CABAC / 3 Ref Frames
Format settings, CABAC                   : Yes
Format settings, Reference frames        : 3 frames
Codec ID                                 : V_MPEG4/ISO/AVC
Duration                                 : 1 h 37 min
Bit rate                                 : 1 789 kb/s
Width                                    : 1 920 pixels
Height                                   : 888 pixels
Display aspect ratio                     : 2.2:1
Frame rate mode                          : Constant
Frame rate                               : 24.000 FPS
Color space                              : YUV
Chroma subsampling                       : 4:2:0
Bit depth                                : 8 bits
Scan type                                : Progressive
Bits/(Pixel*Frame)                       : 0.044
Stream size                              : 1.22 GiB (80%)
Writing library                          : qiyi.com vtc-test
Default                                  : Yes
Forced                                   : No
Color range                              : Limited
Color primaries                          : BT.709
Transfer characteristics                 : BT.709
Matrix coefficients                      : BT.709

Audio #1
ID                                       : 2
Format                                   : AAC LC
Format/Info                              : Advanced Audio Codec Low Complexity
Codec ID                                 : A_AAC-2
Duration                                 : 1 h 37 min
Bit rate                                 : 192 kb/s
Channel(s)                               : 2 channels
Channel layout                           : L R
Sampling rate                            : 44.1 kHz
Frame rate                               : 43.066 FPS (1024 SPF)
Compression mode                         : Lossy
Stream size                              : 132 MiB (8%)
Default                                  : Yes
Forced                                   : No

Audio #2
ID                                       : 3
Format                                   : E-AC-3
Format/Info                              : Enhanced AC-3
Commercial name                          : Dolby Digital Plus
Codec ID                                 : A_EAC3
Duration                                 : 1 h 37 min
Bit rate mode                            : Constant
Bit rate                                 : 256 kb/s
Channel(s)                               : 6 channels
Channel layout                           : L R C LFE Ls Rs
Sampling rate                            : 48.0 kHz
Frame rate                               : 31.250 FPS (1536 SPF)
Compression mode                         : Lossy
Stream size                              : 178 MiB (11%)
Service kind                             : Complete Main
Default                                  : Yes
Forced                                   : No


悠悠MP4_MP4电影下载_[超越][WEB-MKV/1.52GB][1080P][励志,运动,体育,体育生,跑步,短跑]

提示:如迅雷下载提示"任务出错"、"因版权无法下载",请尝试【迅雷5】
上传的附件:
最新回复 (0)
返回
本站所有资源均收集自互联网,没有提供影片资源存储, 也未参与录制、上传,若本站收录的资源无意侵犯了您的权益, 请联系邮箱:gogoimgs#gmail.com(#[email protected])