[更早] [欧美] [惊悚] [WEB-1080P] 凶手在我们之中 Killer.Among.Us.2021.1080p.WEB-DL.DD5.1.H264-FGT 2.79GB

uump4 23天前 378

帖子完整标题:凶手在我们之中 Killer.Among.Us.2021.1080p.WEB-DL.DD5.1.H264-FGT 2.79GB

悠悠MP4_MP4电影下载_凶手在我们之中 Killer.Among.Us.2021.1080p.WEB-DL.DD5.1.H264-FGT 2.79GB

◎译  名 凶手在我们之中/No Human Involved
◎片  名 Killer Among Us
◎年  代 2021
◎产  地 美国
◎类  别 惊悚
◎语  言 英语
◎上映日期 2021-04-16(美国)
◎IMDb链接  https://www.imdb.com/title/tt9213934/
◎豆瓣评分 /10 from 0 users
◎豆瓣链接 https://movie.douban.com/subject/35413122/
◎主  演 雅莎·杰克逊 Yasha Jackson
       艾曼尼·刘易斯 Imani Lewis

◎简  介

  On the 4th of July, a rookie female cop partners with a veteran detective to save the life of a high-school student from a radicalized serial killer.

Video
ID                                       : 1
Format                                   : AVC
Format/Info                              : Advanced Video Codec
Format profile                           : [email protected]
Format settings                          : CABAC / 5 Ref Frames
Format settings, CABAC                   : Yes
Format settings, Reference frames        : 5 frames
Codec ID                                 : V_MPEG4/ISO/AVC
Duration                                 : 1 h 20 min
Bit rate                                 : 4 576 kb/s
Width                                    : 1 908 pixels
Height                                   : 788 pixels
Display aspect ratio                     : 2.40:1
Frame rate mode                          : Constant
Frame rate                               : 23.976 (24000/1001/189150) FPS
Color space                              : YUV
Chroma subsampling                       : 4:2:0
Bit depth                                : 8 bits
Scan type                                : Progressive
Bits/(Pixel*Frame)                       : 0.127
Stream size                              : 2.58 GiB (92%)
Language                                 : English
Default                                  : Yes
Forced                                   : No
Color range                              : Limited
Color primaries                          : BT.709
Transfer characteristics                 : BT.709
Matrix coefficients                      : BT.709

Audio
ID                                       : 2
Format                                   : AC-3
Format/Info                              : Audio Coding 3
Commercial name                          : Dolby Digital
Codec ID                                 : A_AC3
Duration                                 : 1 h 20 min
Bit rate mode                            : Constant
Bit rate                                 : 384 kb/s
Channel(s)                               : 6 channels
Channel layout                           : L R C LFE Ls Rs
Sampling rate                            : 48.0 kHz
Frame rate                               : 31.250 FPS (1536 SPF)
Compression mode                         : Lossy
Stream size                              : 221 MiB (8%)
Language                                 : English
Service kind                             : Complete Main
Default                                  : Yes
Forced                                   : No

Text
ID                                       : 3
Format                                   : UTF-8
Codec ID                                 : S_TEXT/UTF8
Codec ID/Info                            : UTF-8 Plain Text
Duration                                 : 1 h 11 min
Bit rate                                 : 45 b/s
Count of elements                        : 895
Stream size                              : 24.1 KiB (0%)
Language                                 : English
Default                                  : Yes
Forced                                   : No


悠悠MP4_MP4电影下载_凶手在我们之中 Killer.Among.Us.2021.1080p.WEB-DL.DD5.1.H264-FGT 2.79GB悠悠MP4_MP4电影下载_凶手在我们之中 Killer.Among.Us.2021.1080p.WEB-DL.DD5.1.H264-FGT 2.79GB悠悠MP4_MP4电影下载_凶手在我们之中 Killer.Among.Us.2021.1080p.WEB-DL.DD5.1.H264-FGT 2.79GB


提示:如迅雷下载提示"任务出错"、"因版权无法下载",请尝试【迅雷5】
上传的附件:
最新回复 (0)
返回
本站所有资源均收集自互联网,没有提供影片资源存储, 也未参与录制、上传,若本站收录的资源无意侵犯了您的权益, 请联系邮箱:gogoimgs#gmail.com(#[email protected])