[更早] [欧美] [喜剧] [BD-1080P] 半仙半死/抢救肯尼小子 Half.Baked.1998.iNTERNAL.1080p.BluRay.x264-GUACAMOLE 10.24GB

uump4 23天前 203

帖子完整标题:半仙半死/抢救肯尼小子 Half.Baked.1998.iNTERNAL.1080p.BluRay.x264-GUACAMOLE 10.24GB

悠悠MP4_MP4电影下载_半仙半死/抢救肯尼小子 Half.Baked.1998.iNTERNAL.1080p.BluRay.x264-GUACAMOLE 10.24GB

◎译  名 半仙半死/抢救肯尼小子
◎片  名 Half Baked
◎年  代 1998
◎产  地 美国
◎类  别 喜剧 / 犯罪
◎语  言 英语
◎上映日期 1998-01-16
◎IMDb评分  6.7/10 from 58394 users
◎IMDb链接  https://www.imdb.com/title/tt0120693/
◎豆瓣评分 7.7/10 from 651 users
◎豆瓣链接 https://movie.douban.com/subject/1294585/
◎片  长 82 分钟
◎导  演 塔拉·戴维斯 Tamra Davis
◎编  剧 大卫·查普尔 Dave Chappelle / 尼尔·布伦南 Neal Brennan
◎主  演 大卫·查普尔 Dave Chappelle
       古列雷莫·迪亚兹 Guillermo Díaz
       吉姆·布鲁尔 Jim Breuer
       哈兰德·威廉姆斯 Harland Williams
       汤米·钟 Tommy Chong
       凯文·布伦南 Kevin Brennan
       劳拉·希尔维曼 Laura Silverman
       蕾切尔·楚 Rachel True
       克兰伦斯·威廉姆斯三世 Clarence Williams III
       尼尔·布伦南 Neal Brennan
       史努比狗狗 Snoop Dogg
       乔恩·斯图尔特 Jon Stewart
       史蒂芬·鲍德温 Stephen Baldwin
       崔西·摩根 Tracy Morgan
       威利·纳尔逊 Willie Nelson

◎标  签 喜剧 | 飞片儿 | 美国 | 大麻 | 飞完在看 | 飞 | 毒品 | 美国电影

◎简  介

  肯尼意外地用从麦奇跑买来的食物喂了一只患有糖尿病的警察的马,结果杀死了它。之后,他被关进了监狱,并获得了100万美元的保释金。其余的人必须在讨厌的内特找到肯尼之前把他保释出来。该组织决定出售瑟古德在一家制药实验室做门卫的大麻。他们与说唱明星Sir Smoke-A-Lot以及毒贩Samson Simpson的竞争对手成为朋友。另一方面,瑟古德寻求玛丽·简的爱,她是一个反大麻的商人的女儿。接下来是典型的瘾君子行为和大量的配角。仔细观察。

Video
ID                                       : 1
Format                                   : AVC
Format/Info                              : Advanced Video Codec
Format profile                           : [email protected]
Format settings                          : CABAC / 4 Ref Frames
Format settings, CABAC                   : Yes
Format settings, Reference frames        : 4 frames
Codec ID                                 : V_MPEG4/ISO/AVC
Duration                                 : 1 h 22 min
Bit rate                                 : 13.7 Mb/s
Width                                    : 1 920 pixels
Height                                   : 1 040 pixels
Display aspect ratio                     : 1.85:1
Frame rate mode                          : Constant
Frame rate                               : 23.976 (24000/1001/189150) FPS
Color space                              : YUV
Chroma subsampling                       : 4:2:0
Bit depth                                : 8 bits
Scan type                                : Progressive
Bits/(Pixel*Frame)                       : 0.286
Stream size                              : 7.84 GiB (77%)
Writing library                          : x264 core 161 r3048 b86ae3c
Encoding settings                        : cabac=1 / ref=4 / deblock=1:-3:-3 / analyse=0x3:0x133 / me=umh / subme=9 / psy=1 / psy_rd=1.00:0.00 / mixed_ref=1 / me_range=16 / chroma_me=1 / trellis=2 / 8x8dct=1 / cqm=0 / deadzone=21,11 / fast_pskip=0 / chroma_qp_offset=-2 / threads=24 / lookahead_threads=2 / sliced_threads=0 / nr=0 / decimate=1 / interlaced=0 / bluray_compat=0 / constrained_intra=0 / bframes=3 / b_pyramid=2 / b_adapt=2 / b_bias=0 / direct=3 / weightb=1 / open_gop=0 / weightp=2 / keyint=250 / keyint_min=23 / scenecut=40 / intra_refresh=0 / rc_lookahead=60 / rc=crf / mbtree=1 / crf=17.5 / qcomp=0.60 / qpmin=0 / qpmax=69 / qpstep=4 / ip_ratio=1.40 / aq=3:0.60
Default                                  : Yes
Forced                                   : No
Color range                              : Limited
Matrix coefficients                      : BT.709

Audio
ID                                       : 2
Format                                   : DTS XLL
Format/Info                              : Digital Theater Systems
Commercial name                          : DTS-HD Master Audio
Codec ID                                 : A_DTS
Duration                                 : 1 h 22 min
Bit rate mode                            : Variable
Bit rate                                 : 4 186 kb/s
Channel(s)                               : 6 channels
Channel layout                           : C L R Ls Rs LFE
Sampling rate                            : 48.0 kHz
Frame rate                               : 93.750 FPS (512 SPF)
Bit depth                                : 24 bits
Compression mode                         : Lossless
Stream size                              : 2.40 GiB (23%)
Language                                 : English
Default                                  : Yes
Forced                                   : No

Text
ID                                       : 3
Format                                   : PGS
Muxing mode                              : zlib
Codec ID                                 : S_HDMV/PGS
Codec ID/Info                            : Picture based subtitle format used on BDs/HD-DVDs
Duration                                 : 56 min 35 s
Bit rate                                 : 793 b/s
Count of elements                        : 24
Stream size                              : 329 KiB (0%)
Title                                    : Forced
Language                                 : German
Default                                  : No
Forced                                   : No

Menu
00:00:00.000                             : en:00:00:00.000
00:05:38.129                             : en:00:05:38.129
00:13:09.664                             : en:00:13:09.664
00:30:48.597                             : en:00:30:48.597
00:42:52.278                             : en:00:42:52.278
00:51:54.236                             : en:00:51:54.236
01:04:13.892                             : en:01:04:13.892
01:18:01.135                             : en:01:18:01.135
01:21:40.604                             : en:01:21:40.604


悠悠MP4_MP4电影下载_半仙半死/抢救肯尼小子 Half.Baked.1998.iNTERNAL.1080p.BluRay.x264-GUACAMOLE 10.24GB


提示:如迅雷下载提示"任务出错"、"因版权无法下载",请尝试【迅雷5】
上传的附件:
最新回复 (0)
返回
本站所有资源均收集自互联网,没有提供影片资源存储, 也未参与录制、上传,若本站收录的资源无意侵犯了您的权益, 请联系邮箱:gogoimgs#gmail.com(#[email protected])