[更早] [欧美] [剧情] [BD-720P] 初始者/初学者 Primer.2004.720p.BluRay.x264-USURY 5.40GB

uump4 23天前 175

帖子完整标题:初始者/初学者 Primer.2004.720p.BluRay.x264-USURY 5.40GB

悠悠MP4_MP4电影下载_初始者/初学者 Primer.2004.720p.BluRay.x264-USURY 5.40GB

◎译  名 初始者/初学者/命运之门/雷管
◎片  名 Primer
◎年  代 2004
◎产  地 美国
◎类  别 剧情 / 科幻 / 惊悚
◎语  言 英语,法语
◎上映日期 2004-01-16
◎IMDb评分  6.9/10 from 99655 users
◎IMDb链接  https://www.imdb.com/title/tt0390384/
◎豆瓣评分 6.5/10 from 1742 users
◎豆瓣链接 https://movie.douban.com/subject/1401312/
◎片  长 77 分钟
◎导  演 什恩·卡鲁斯 Shane Carruth
◎编  剧 什恩·卡鲁斯 Shane Carruth
◎主  演 什恩·卡鲁斯 Shane Carruth
       大卫·苏利文 David Sullivan
       卡西·古登 Casey Gooden
       Anand Upadhyaya
       Carrie Crawford
       Jay Butler
       John Carruth
       Juan Tapia
       Ashley Warren
       Samantha Thomson
       Chip Carruth
       Delaney Price
       Jack Pyland
       Keith Bradshaw
       Ashok Upadhyaya
       Brandon Blagg
       Jon Cook
       David Joyner
       Eric De Soualhat

◎标  签 科幻 | 美国 | 悬疑 | 独立电影 | 2004 | 独立 | 美国电影 | 惊悚

◎简  介

  获得第24届圣丹斯电影节剧情片类评委会大奖的《雷管》,讲述的是四位合作者出于兴趣发明了一台查错仪器,却意外地发现这台仪器拥有强大的商业价值,最终四人相互争斗的局面。《雷管》是导演什恩-卡鲁斯(ShaneCaruth)首次执导的剧情长片,该片由他自己投资,并身兼编剧、导演、主演数职,体现出独立电影的“DIY”精神。另外,令人津津乐道的是该片不足7000美元的超低制作成本,只相当于一辆富康车的价钱……

Video
ID                                       : 1
Format                                   : AVC
Format/Info                              : Advanced Video Codec
Format profile                           : [email protected]
Format settings                          : CABAC / 9 Ref Frames
Format settings, CABAC                   : Yes
Format settings, Reference frames        : 9 frames
Codec ID                                 : V_MPEG4/ISO/AVC
Duration                                 : 1 h 17 min
Bit rate                                 : 8 511 kb/s
Width                                    : 1 280 pixels
Height                                   : 720 pixels
Display aspect ratio                     : 16:9
Frame rate mode                          : Constant
Frame rate                               : 23.976 (24000/1001/189150) FPS
Color space                              : YUV
Chroma subsampling                       : 4:2:0
Bit depth                                : 8 bits
Scan type                                : Progressive
Bits/(Pixel*Frame)                       : 0.385
Stream size                              : 4.60 GiB (85%)
Writing library                          : x264 core 161 r3048 b86ae3c
Encoding settings                        : cabac=1 / ref=9 / deblock=1:-3:-3 / analyse=0x3:0x133 / me=umh / subme=10 / psy=1 / psy_rd=1.00:0.15 / mixed_ref=1 / me_range=24 / chroma_me=1 / trellis=2 / 8x8dct=1 / cqm=0 / deadzone=21,11 / fast_pskip=1 / chroma_qp_offset=-3 / threads=18 / lookahead_threads=3 / sliced_threads=0 / nr=0 / decimate=1 / interlaced=0 / bluray_compat=0 / constrained_intra=0 / bframes=8 / b_pyramid=2 / b_adapt=2 / b_bias=0 / direct=3 / weightb=1 / open_gop=0 / weightp=2 / keyint=250 / keyint_min=23 / scenecut=40 / intra_refresh=0 / rc_lookahead=60 / rc=crf / mbtree=1 / crf=21.0 / qcomp=0.60 / qpmin=0 / qpmax=69 / qpstep=4 / ip_ratio=1.40 / aq=3:0.50
Language                                 : English
Default                                  : Yes
Forced                                   : No
Color range                              : Limited
Matrix coefficients                      : BT.709

Audio #1
ID                                       : 2
Format                                   : FLAC
Format/Info                              : Free Lossless Audio Codec
Codec ID                                 : A_FLAC
Duration                                 : 1 h 17 min
Bit rate mode                            : Variable
Bit rate                                 : 1 269 kb/s
Channel(s)                               : 2 channels
Channel layout                           : L R
Sampling rate                            : 48.0 kHz
Frame rate                               : 11.719 FPS (4096 SPF)
Bit depth                                : 24 bits
Compression mode                         : Lossless
Stream size                              : 702 MiB (13%)
Writing library                          : libFLAC 1.2.1 (UTC 2007-09-17)
Language                                 : English
Default                                  : Yes
Forced                                   : No

Audio #2
ID                                       : 3
Format                                   : AAC LC
Format/Info                              : Advanced Audio Codec Low Complexity
Codec ID                                 : A_AAC-2
Duration                                 : 1 h 17 min
Bit rate                                 : 99.8 kb/s
Channel(s)                               : 2 channels
Channel layout                           : L R
Sampling rate                            : 48.0 kHz
Frame rate                               : 46.875 FPS (1024 SPF)
Compression mode                         : Lossy
Delay relative to video                  : 9 ms
Stream size                              : 55.2 MiB (1%)
Title                                    : English Commentary by Shane Carruth
Language                                 : English
Default                                  : No
Forced                                   : No

Audio #3
ID                                       : 4
Format                                   : AAC LC
Format/Info                              : Advanced Audio Codec Low Complexity
Codec ID                                 : A_AAC-2
Duration                                 : 1 h 17 min
Bit rate                                 : 96.0 kb/s
Channel(s)                               : 2 channels
Channel layout                           : L R
Sampling rate                            : 48.0 kHz
Frame rate                               : 46.875 FPS (1024 SPF)
Compression mode                         : Lossy
Delay relative to video                  : 9 ms
Stream size                              : 53.8 MiB (1%)
Title                                    : English Cast and Crew Commentary
Language                                 : English
Default                                  : No
Forced                                   : No

Text #1
ID                                       : 5
Format                                   : UTF-8
Codec ID                                 : S_TEXT/UTF8
Codec ID/Info                            : UTF-8 Plain Text
Duration                                 : 1 h 14 min
Bit rate                                 : 97 b/s
Count of elements                        : 1180
Stream size                              : 53.5 KiB (0%)
Title                                    : English
Language                                 : English
Default                                  : No
Forced                                   : No

Text #2
ID                                       : 6
Format                                   : UTF-8
Codec ID                                 : S_TEXT/UTF8
Codec ID/Info                            : UTF-8 Plain Text
Duration                                 : 1 h 15 min
Bit rate                                 : 99 b/s
Count of elements                        : 1217
Stream size                              : 54.8 KiB (0%)
Title                                    : English SDH
Language                                 : English
Default                                  : No
Forced                                   : No

Text #3
ID                                       : 7
Format                                   : PGS
Muxing mode                              : zlib
Codec ID                                 : S_HDMV/PGS
Codec ID/Info                            : Picture based subtitle format used on BDs/HD-DVDs
Duration                                 : 1 h 15 min
Bit rate                                 : 15.1 kb/s
Count of elements                        : 2434
Stream size                              : 8.10 MiB (0%)
Title                                    : English SDH
Language                                 : English
Default                                  : No
Forced                                   : No

Menu #1
00:00:00.000                             : en:00:00:00.000
00:07:42.229                             : en:00:07:42.229
00:13:21.652                             : en:00:13:21.652
00:19:40.864                             : en:00:19:40.864
00:24:42.165                             : en:00:24:42.165
00:31:24.108                             : en:00:31:24.108
00:37:58.335                             : en:00:37:58.335
00:45:37.919                             : en:00:45:37.919
00:51:01.159                             : en:00:51:01.159
00:58:53.089                             : en:00:58:53.089
01:02:44.862                             : en:01:02:44.862
01:10:53.517                             : en:01:10:53.517

Menu #2
00:00:00.054                             : en:00:00:00.054


悠悠MP4_MP4电影下载_初始者/初学者 Primer.2004.720p.BluRay.x264-USURY 5.40GB


提示:如迅雷下载提示"任务出错"、"因版权无法下载",请尝试【迅雷5】
上传的附件:
最新回复 (0)
返回
本站所有资源均收集自互联网,没有提供影片资源存储, 也未参与录制、上传,若本站收录的资源无意侵犯了您的权益, 请联系邮箱:gogoimgs#gmail.com(#[email protected])