[更早] [其他] [剧情] [BD-1080P] 穆谢特/少女穆夏特 Mouchette.1967.REMASTERED.1080p.BluRay.x264-USURY 10.05GB

uump4 23天前 148

帖子完整标题:穆谢特/少女穆夏特 Mouchette.1967.REMASTERED.1080p.BluRay.x264-USURY 10.05GB

悠悠MP4_MP4电影下载_穆谢特/少女穆夏特 Mouchette.1967.REMASTERED.1080p.BluRay.x264-USURY 10.05GB

◎译  名 穆谢特/少女穆夏特/少女穆谢特/少女莫夏特/慕雪特/穆赛特/莫赫特
◎片  名 Mouchette
◎年  代 1967
◎产  地 法国
◎类  别 剧情
◎语  言 法语
◎上映日期 1967-03-28
◎IMDb评分  7.8/10 from 10608 users
◎IMDb链接  https://www.imdb.com/title/tt0061996/
◎豆瓣评分 8.5/10 from 5687 users
◎豆瓣链接 https://movie.douban.com/subject/1302413/
◎片  长 78 分钟
◎导  演 罗伯特·布列松 Robert Bresson
◎编  剧 罗伯特·布列松 Robert Bresson / 乔治·贝尔纳诺斯 Georges Bernanos
◎主  演 Marie Cardinal
       让·维姆内 Jean Vimenet
       Jean-Claude Guilbert
       保罗·赫伯特 Paul Hébert
       娜丁·诺蒂尔 Nadine Nortier
       Marie Susini

◎标  签 法国 | 布列松 | 罗伯特·布列松 | 法国电影 | RobertBresson | 1967 | Robert_Bresson | 1960s

◎简  介

  14岁的少女穆谢特(Nadine Nortier 饰)生活在法国的乡间,她的童年暗淡无味,充满艰辛。父亲(Paul Hebert 饰)是一个贩卖私酒的贪杯酒鬼,对家务不管不顾;母亲(Marie Cardinal 饰)病入膏肓,终日躺在床上等待死神的莅临;尚在襁褓中的弟弟整天哭闹不止,令人心烦气躁。家庭的磨难让这个小女孩过早成熟,她打工赚来的钱被父亲抢走,还经常遭到殴打。她在学校受到同学的嘲笑和欺负,倔强的穆谢特只能通过在放学时向同学丢土块宣泄心中的不满。原本应该充满快乐的花季童年,就这样过早地凋谢了……
  
  本片荣获1967年戛纳电影节OCIC奖、1968年法国电影评论协会奖最佳影片奖、1969年意大利电影新闻记者协会银兔奖最佳外语片导演奖、1967年威尼斯电影节Pasinetti最佳影片奖。

◎获奖情况

  第20届戛纳电影节 ?(1967)
  主竞赛单元金棕榈奖(提名) 罗伯特·布列松
  OCICAward 罗伯特·布列松

Video
ID                                       : 1
Format                                   : AVC
Format/Info                              : Advanced Video Codec
Format profile                           : [email protected]
Format settings                          : CABAC / 4 Ref Frames
Format settings, CABAC                   : Yes
Format settings, Reference frames        : 4 frames
Codec ID                                 : V_MPEG4/ISO/AVC
Duration                                 : 1 h 21 min
Bit rate                                 : 17.0 Mb/s
Width                                    : 1 792 pixels
Height                                   : 1 080 pixels
Display aspect ratio                     : 5:3
Frame rate mode                          : Constant
Frame rate                               : 23.976 (24000/1001/189150) FPS
Color space                              : YUV
Chroma subsampling                       : 4:2:0
Bit depth                                : 8 bits
Scan type                                : Progressive
Bits/(Pixel*Frame)                       : 0.366
Stream size                              : 9.71 GiB (97%)
Writing library                          : x264 core 161 r3048 b86ae3c
Encoding settings                        : cabac=1 / ref=4 / deblock=1:-3:-3 / analyse=0x3:0x133 / me=umh / subme=10 / psy=1 / psy_rd=1.00:0.15 / mixed_ref=1 / me_range=24 / chroma_me=1 / trellis=2 / 8x8dct=1 / cqm=0 / deadzone=21,11 / fast_pskip=1 / chroma_qp_offset=-3 / threads=18 / lookahead_threads=3 / sliced_threads=0 / nr=0 / decimate=1 / interlaced=0 / bluray_compat=0 / constrained_intra=0 / bframes=8 / b_pyramid=2 / b_adapt=2 / b_bias=0 / direct=3 / weightb=1 / open_gop=0 / weightp=2 / keyint=250 / keyint_min=23 / scenecut=40 / intra_refresh=0 / rc_lookahead=60 / rc=crf / mbtree=1 / crf=19.5 / qcomp=0.60 / qpmin=0 / qpmax=69 / qpstep=4 / ip_ratio=1.40 / aq=3:0.50
Language                                 : English
Default                                  : Yes
Forced                                   : No

Audio #1
ID                                       : 2
Format                                   : FLAC
Format/Info                              : Free Lossless Audio Codec
Codec ID                                 : A_FLAC
Duration                                 : 1 h 21 min
Bit rate mode                            : Variable
Bit rate                                 : 517 kb/s
Channel(s)                               : 1 channel
Channel layout                           : C
Sampling rate                            : 48.0 kHz
Frame rate                               : 11.719 FPS (4096 SPF)
Bit depth                                : 24 bits
Compression mode                         : Lossless
Stream size                              : 302 MiB (3%)
Writing library                          : libFLAC 1.2.1 (UTC 2007-09-17)
Language                                 : French
Default                                  : Yes
Forced                                   : No

Audio #2
ID                                       : 3
Format                                   : AAC LC
Format/Info                              : Advanced Audio Codec Low Complexity
Codec ID                                 : A_AAC-2
Duration                                 : 1 h 21 min
Bit rate                                 : 63.3 kb/s
Channel(s)                               : 1 channel
Channel layout                           : C
Sampling rate                            : 48.0 kHz
Frame rate                               : 46.875 FPS (1024 SPF)
Compression mode                         : Lossy
Delay relative to video                  : 9 ms
Stream size                              : 37.0 MiB (0%)
Title                                    : English Commentary by Tony Rayns
Language                                 : English
Default                                  : No
Forced                                   : No

Text #1
ID                                       : 4
Format                                   : UTF-8
Codec ID                                 : S_TEXT/UTF8
Codec ID/Info                            : UTF-8 Plain Text
Duration                                 : 1 h 15 min
Bit rate                                 : 14 b/s
Count of elements                        : 278
Stream size                              : 8.00 KiB (0%)
Title                                    : English
Language                                 : English
Default                                  : Yes
Forced                                   : Yes

Text #2
ID                                       : 5
Format                                   : PGS
Muxing mode                              : zlib
Codec ID                                 : S_HDMV/PGS
Codec ID/Info                            : Picture based subtitle format used on BDs/HD-DVDs
Duration                                 : 1 h 15 min
Bit rate                                 : 3 521 b/s
Count of elements                        : 556
Stream size                              : 1.89 MiB (0%)
Title                                    : English
Language                                 : English
Default                                  : No
Forced                                   : No

Menu
00:00:00.000                             : en:00:00:00.000
00:02:26.855                             : en:00:02:26.855
00:06:50.118                             : en:00:06:50.118
00:12:18.863                             : en:00:12:18.863
00:16:23.357                             : en:00:16:23.357
00:19:36.550                             : en:00:19:36.550
00:24:43.399                             : en:00:24:43.399
00:27:30.816                             : en:00:27:30.816
00:31:02.110                             : en:00:31:02.110
00:35:01.224                             : en:00:35:01.224
00:42:23.708                             : en:00:42:23.708
00:53:50.644                             : en:00:53:50.644
01:05:03.942                             : en:01:05:03.942
01:12:42.942                             : en:01:12:42.942
01:15:46.542                             : en:01:15:46.542
01:18:10.102                             : en:01:18:10.102


悠悠MP4_MP4电影下载_穆谢特/少女穆夏特 Mouchette.1967.REMASTERED.1080p.BluRay.x264-USURY 10.05GB


提示:如迅雷下载提示"任务出错"、"因版权无法下载",请尝试【迅雷5】
上传的附件:
最新回复 (0)
返回
本站所有资源均收集自互联网,没有提供影片资源存储, 也未参与录制、上传,若本站收录的资源无意侵犯了您的权益, 请联系邮箱:gogoimgs#gmail.com(#[email protected])