[更早] [其他] [其他] [BD-720P] 穆谢特拍摄特辑 Au.Hasard.Bresson.1967.720p.BluRay.x264-BiPOLAR 2.06GB

uump4 23天前 121

帖子完整标题:穆谢特拍摄特辑 Au.Hasard.Bresson.1967.720p.BluRay.x264-BiPOLAR 2.06GB

悠悠MP4_MP4电影下载_穆谢特拍摄特辑 Au.Hasard.Bresson.1967.720p.BluRay.x264-BiPOLAR 2.06GB

◎译  名 穆谢特拍摄特辑/Au hasard Bresson/Documentary Short Film about the filming of 'Mouchette'
◎片  名 Zum Beispiel Bresson
◎年  代 1967
◎产  地 西德
◎类  别 纪录片 / 短片
◎语  言 德语
◎上映日期 1967
◎IMDb评分 7.1/10 from 76 users
◎IMDb链接 https://www.imdb.com/title/tt0163920/
◎豆瓣评分 /10 from 0 users
◎豆瓣链接 https://movie.douban.com/subject/4704000/
◎导  演 Theodor Kotulla
◎主  演 罗伯特·布列松 Robert Bresson

◎标  签 纪录片 | 法国 | 布列松 | 短片 | RobertBresson | 紀錄片 | 罗伯特·布列松 | 德国

◎简  介

  This documentary is available on the Criterion Collection release of 'Mouchette' (1967).

Video
ID : 1
Format : AVC
Format/Info : Advanced Video Codec
Format profile : [email protected]
Format settings : CABAC / 11 Ref Frames
Format settings, CABAC : Yes
Format settings, Reference frames : 11 frames
Codec ID : V_MPEG4/ISO/AVC
Duration : 31 min 13 s
Bit rate : 9 218 kb/s
Width : 970 pixels
Height : 720 pixels
Display aspect ratio : 4:3
Frame rate mode : Constant
Frame rate : 23.976 (24000/1001/189150) FPS
Color space : YUV
Chroma subsampling : 4:2:0
Bit depth : 8 bits
Scan type : Progressive
Bits/(Pixel*Frame) : 0.551
Stream size : 2.01 GiB (98%)
Writing library : x264 core 161 r3048 b86ae3c
Encoding settings : cabac=1 / ref=11 / deblock=1:-3:-3 / analyse=0x3:0x133 / me=umh / subme=10 / psy=1 / psy_rd=1.00:0.15 / mixed_ref=1 / me_range=24 / chroma_me=1 / trellis=2 / 8x8dct=1 / cqm=0 / deadzone=21,11 / fast_pskip=1 / chroma_qp_offset=-3 / threads=18 / lookahead_threads=3 / sliced_threads=0 / nr=0 / decimate=1 / interlaced=0 / bluray_compat=0 / constrained_intra=0 / bframes=8 / b_pyramid=2 / b_adapt=2 / b_bias=0 / direct=3 / weightb=1 / open_gop=0 / weightp=2 / keyint=250 / keyint_min=23 / scenecut=40 / intra_refresh=0 / rc_lookahead=60 / rc=crf / mbtree=1 / crf=21.0 / qcomp=0.60 / qpmin=0 / qpmax=69 / qpstep=4 / ip_ratio=1.40 / aq=3:0.50
Language : English
Default : Yes
Forced : No

Audio
ID : 2
Format : AC-3
Format/Info : Audio Coding 3
Commercial name : Dolby Digital
Codec ID : A_AC3
Duration : 31 min 13 s
Bit rate mode : Constant
Bit rate : 192 kb/s
Channel(s) : 1 channel
Channel layout : C
Sampling rate : 48.0 kHz
Frame rate : 31.250 FPS (1536 SPF)
Compression mode : Lossy
Stream size : 42.9 MiB (2%)
Language : French
Service kind : Complete Main
Default : Yes
Forced : No

Text #1
ID : 3
Format : UTF-8
Codec ID : S_TEXT/UTF8
Codec ID/Info : UTF-8 Plain Text
Duration : 30 min 47 s
Bit rate : 50 b/s
Count of elements : 349
Stream size : 11.5 KiB (0%)
Title : English
Language : English
Default : Yes
Forced : Yes

Text #2
ID : 4
Format : PGS
Muxing mode : zlib
Codec ID : S_HDMV/PGS
Codec ID/Info : Picture based subtitle format used on BDs/HD-DVDs
Duration : 30 min 47 s
Bit rate : 12.1 kb/s
Count of elements : 698
Stream size : 2.66 MiB (0%)
Title : English
Language : English
Default : No
Forced : No

悠悠MP4_MP4电影下载_穆谢特拍摄特辑 Au.Hasard.Bresson.1967.720p.BluRay.x264-BiPOLAR 2.06GB


提示:如迅雷下载提示"任务出错"、"因版权无法下载",请尝试【迅雷5】
上传的附件:
最新回复 (0)
返回
本站所有资源均收集自互联网,没有提供影片资源存储, 也未参与录制、上传,若本站收录的资源无意侵犯了您的权益, 请联系邮箱:gogoimgs#gmail.com(#[email protected])