[2016] [其他] [其他] [BD-720P] 巴斯特·基顿:被好莱坞毁掉的天才/Buster Keaton, Hollywoodin tuhoama nero(芬兰) Buster.Keaton.the.G

uump4 23天前 176

帖子完整标题:巴斯特·基顿:被好莱坞毁掉的天才/Buster Keaton, Hollywoodin tuhoama nero(芬兰) Buster.Keaton.the.Genius.Destroyed.by.Hollywood.2016.720p.BluRay.x264-BiPOLAR 2.63GB

悠悠MP4_MP4电影下载_巴斯特·基顿:被好莱坞毁掉的天才/Buster Keaton, Hollywoodin tuhoama nero(芬兰) Buster.Keaton.the.G

◎译  名 巴斯特·基顿:被好莱坞毁掉的天才/Buster Keaton, Hollywoodin tuhoama nero(芬兰)/Buster Keaton, the Genius Crushed by Hollywood/Buster Keaton, un génie brisé par Hollywood(法国)
◎片  名 Buster Keaton, the Genius Destroyed by Hollywood
◎年  代 2016
◎产  地 法国
◎类  别 纪录片 / 传记
◎语  言 英语
◎上映日期 2016-09-26(法国)
◎IMDb评分  7.1/10 from 118 users
◎IMDb链接  https://www.imdb.com/title/tt8020616/
◎豆瓣评分 /10 from 0 users
◎豆瓣链接 https://movie.douban.com/subject/34900770/
◎片  长 53分钟
◎主  演 巴斯特·基顿 Buster Keaton

◎标  签 巴斯特·基顿 | 纪录片 | 传记 | 2010s | 迷影 | 法国 | 2016 | Jean-Baptiste_Péretié

◎简  介

  暂无相关剧情介绍

Video
ID                                       : 1
Format                                   : AVC
Format/Info                              : Advanced Video Codec
Format profile                           : [email protected]
Format settings                          : CABAC / 9 Ref Frames
Format settings, CABAC                   : Yes
Format settings, Reference frames        : 9 frames
Codec ID                                 : V_MPEG4/ISO/AVC
Duration                                 : 56 min 1 s
Bit rate                                 : 5 501 kb/s
Width                                    : 1 280 pixels
Height                                   : 720 pixels
Display aspect ratio                     : 16:9
Frame rate mode                          : Constant
Frame rate                               : 23.976 (24000/1001/189150) FPS
Color space                              : YUV
Chroma subsampling                       : 4:2:0
Bit depth                                : 8 bits
Scan type                                : Progressive
Bits/(Pixel*Frame)                       : 0.249
Stream size                              : 2.15 GiB (82%)
Writing library                          : x264 core 161 r3048 b86ae3c
Encoding settings                        : cabac=1 / ref=9 / deblock=1:-3:-3 / analyse=0x3:0x133 / me=umh / subme=10 / psy=1 / psy_rd=1.00:0.15 / mixed_ref=1 / me_range=24 / chroma_me=1 / trellis=2 / 8x8dct=1 / cqm=0 / deadzone=21,11 / fast_pskip=1 / chroma_qp_offset=-3 / threads=18 / lookahead_threads=3 / sliced_threads=0 / nr=0 / decimate=1 / interlaced=0 / bluray_compat=0 / constrained_intra=0 / bframes=8 / b_pyramid=2 / b_adapt=2 / b_bias=0 / direct=3 / weightb=1 / open_gop=0 / weightp=2 / keyint=250 / keyint_min=23 / scenecut=40 / intra_refresh=0 / rc_lookahead=60 / rc=crf / mbtree=1 / crf=20.0 / qcomp=0.60 / qpmin=0 / qpmax=69 / qpstep=4 / ip_ratio=1.40 / aq=3:0.50
Language                                 : English
Default                                  : Yes
Forced                                   : No
Color range                              : Limited
Matrix coefficients                      : BT.709

Audio
ID                                       : 2
Format                                   : FLAC
Format/Info                              : Free Lossless Audio Codec
Codec ID                                 : A_FLAC
Duration                                 : 56 min 1 s
Bit rate mode                            : Variable
Bit rate                                 : 1 207 kb/s
Channel(s)                               : 2 channels
Channel layout                           : L R
Sampling rate                            : 48.0 kHz
Frame rate                               : 11.719 FPS (4096 SPF)
Bit depth                                : 24 bits
Compression mode                         : Lossless
Stream size                              : 484 MiB (18%)
Writing library                          : libFLAC 1.2.1 (UTC 2007-09-17)
Language                                 : English
Default                                  : Yes
Forced                                   : No

Menu
00:00:00.000                             : en:00:00:00.000
00:12:10.939                             : en:00:12:10.939
00:32:48.842                             : en:00:32:48.842
00:45:56.462                             : en:00:45:56.462





提示:如迅雷下载提示"任务出错"、"因版权无法下载",请尝试【迅雷5】
上传的附件:
最新回复 (0)
返回
本站所有资源均收集自互联网,没有提供影片资源存储, 也未参与录制、上传,若本站收录的资源无意侵犯了您的权益, 请联系邮箱:gogoimgs#gmail.com(#[email protected])