[2015] [其他] [其他] [BD-1080P] 日曜日式散步者 Le.Moulin.2015.1080p.BluRay.x264-BiPOLAR 14.77GB

uump4 23天前 109

帖子完整标题:日曜日式散步者 Le.Moulin.2015.1080p.BluRay.x264-BiPOLAR 14.77GB

悠悠MP4_MP4电影下载_日曜日式散步者 Le.Moulin.2015.1080p.BluRay.x264-BiPOLAR 14.77GB

◎译  名 Le Moulin
◎片  名 日曜日式散步者
◎年  代 2015
◎产  地 中国台湾,日本
◎类  别 纪录片 / 历史
◎语  言 日语,汉语普通话
◎上映日期 2015-11-10(CPH:DOX) / 2017-08-19(日本)
◎IMDb评分  7/10 from 71 users
◎IMDb链接  https://www.imdb.com/title/tt5151568/
◎豆瓣评分 7.8/10 from 1056 users
◎豆瓣链接 https://movie.douban.com/subject/26597842/
◎片  长 162分钟
◎导  演 黄亚历 Ya-li Huang
◎编  剧 黄亚历 Ya-li Huang

◎标  签 纪录片 | 台湾 | 紀錄片 | 日本 | 台灣 | 历史 | 2015 | 黄亚历

◎简  介

  寻找日治文学足迹,发掘台湾的超现实主义。   回顾日治时代的台湾新文学运动,最初是服务于社会、人生、争取民族尊严的反帝国、反封建之现实主义的文学路线。然而鲜为人知的,相对于此一写实路线,台湾在一九三○年代,已出现了几乎与欧洲世界同步的文学现代主义风潮,由杨炽昌、林修二、李张瑞、张良典等人创办的‘风车诗社’,透过日本教育与留学经验接收到的各种文学艺术养分,包含欧洲当时所盛行的达达和超现实主义、日本以春山行夫和西胁顺三郎为首的‘诗与诗论 ’集团 ,以及川端康成、横光利一为首的‘新感觉派’,让现代主义诗学的种子开始于台湾落地生根。

◎获奖情况

  第53届台北金马影展 ?(2016)
  金马奖最佳音效(提名) 澎叶生?/?黄亚历
  金马奖最佳纪录片
  
  第18届台北电影节 ?(2016)
  台北电影奖最佳纪录片(提名)
  台北电影奖最佳编剧奖(提名) 黄亚历
  台北电影奖最佳声音设计(提名) 澎叶生?/?黄亚历

Video
ID                                       : 1
Format                                   : AVC
Format/Info                              : Advanced Video Codec
Format profile                           : [email protected]
Format settings                          : CABAC / 4 Ref Frames
Format settings, CABAC                   : Yes
Format settings, Reference frames        : 4 frames
Codec ID                                 : V_MPEG4/ISO/AVC
Duration                                 : 2 h 42 min
Bit rate                                 : 10.3 Mb/s
Width                                    : 1 640 pixels
Height                                   : 1 080 pixels
Display aspect ratio                     : 3:2
Frame rate mode                          : Constant
Frame rate                               : 24.000 FPS
Color space                              : YUV
Chroma subsampling                       : 4:2:0
Bit depth                                : 8 bits
Scan type                                : Progressive
Bits/(Pixel*Frame)                       : 0.242
Stream size                              : 11.6 GiB (79%)
Writing library                          : x264 core 161 r3048 b86ae3c
Encoding settings                        : cabac=1 / ref=4 / deblock=1:-3:-3 / analyse=0x3:0x133 / me=umh / subme=10 / psy=1 / psy_rd=1.00:0.15 / mixed_ref=1 / me_range=24 / chroma_me=1 / trellis=2 / 8x8dct=1 / cqm=0 / deadzone=21,11 / fast_pskip=1 / chroma_qp_offset=-3 / threads=18 / lookahead_threads=3 / sliced_threads=0 / nr=0 / decimate=1 / interlaced=0 / bluray_compat=0 / constrained_intra=0 / bframes=8 / b_pyramid=2 / b_adapt=2 / b_bias=0 / direct=3 / weightb=1 / open_gop=0 / weightp=2 / keyint=250 / keyint_min=24 / scenecut=40 / intra_refresh=0 / rc_lookahead=60 / rc=crf / mbtree=1 / crf=16.0 / qcomp=0.60 / qpmin=0 / qpmax=69 / qpstep=4 / ip_ratio=1.40 / aq=3:0.50
Language                                 : English
Default                                  : Yes
Forced                                   : No
Color range                              : Limited
Matrix coefficients                      : BT.709

Audio
ID                                       : 2
Format                                   : DTS XLL
Format/Info                              : Digital Theater Systems
Commercial name                          : DTS-HD Master Audio
Codec ID                                 : A_DTS
Duration                                 : 2 h 42 min
Bit rate mode                            : Variable
Bit rate                                 : 2 763 kb/s
Channel(s)                               : 8 channels
Channel layout                           : C L R LFE Lb Rb Lss Rss
Sampling rate                            : 48.0 kHz
Frame rate                               : 93.750 FPS (512 SPF)
Bit depth                                : 16 bits
Compression mode                         : Lossless
Stream size                              : 3.13 GiB (21%)
Language                                 : Japanese
Default                                  : Yes
Forced                                   : No

Text #1
ID                                       : 3
Format                                   : UTF-8
Codec ID                                 : S_TEXT/UTF8
Codec ID/Info                            : UTF-8 Plain Text
Duration                                 : 2 h 36 min
Bit rate                                 : 45 b/s
Count of elements                        : 1579
Stream size                              : 52.1 KiB (0%)
Title                                    : English
Language                                 : English
Default                                  : Yes
Forced                                   : Yes

Text #2
ID                                       : 4
Format                                   : PGS
Muxing mode                              : zlib
Codec ID                                 : S_HDMV/PGS
Codec ID/Info                            : Picture based subtitle format used on BDs/HD-DVDs
Duration                                 : 2 h 36 min
Bit rate                                 : 4 828 b/s
Count of elements                        : 3153
Stream size                              : 5.41 MiB (0%)
Title                                    : English
Language                                 : English
Default                                  : No
Forced                                   : No

Text #3
ID                                       : 5
Format                                   : PGS
Muxing mode                              : zlib
Codec ID                                 : S_HDMV/PGS
Codec ID/Info                            : Picture based subtitle format used on BDs/HD-DVDs
Duration                                 : 2 h 31 min
Bit rate                                 : 4 308 b/s
Count of elements                        : 2584
Stream size                              : 4.66 MiB (0%)
Title                                    : Chinese (traditional)
Language                                 : Chinese
Default                                  : No
Forced                                   : No

Text #4
ID                                       : 6
Format                                   : PGS
Muxing mode                              : zlib
Codec ID                                 : S_HDMV/PGS
Codec ID/Info                            : Picture based subtitle format used on BDs/HD-DVDs
Duration                                 : 2 h 22 min
Bit rate                                 : 507 b/s
Count of elements                        : 222
Stream size                              : 529 KiB (0%)
Title                                    : Japanese forced
Language                                 : Japanese
Default                                  : No
Forced                                   : No

Menu
00:00:00.000                             : en:00:00:00.000
00:23:48.708                             : en:00:23:48.708
00:43:34.333                             : en:00:43:34.333
01:00:07.458                             : en:01:00:07.458
01:35:45.917                             : en:01:35:45.917
01:58:09.458                             : en:01:58:09.458
02:18:48.333                             : en:02:18:48.333





提示:如迅雷下载提示"任务出错"、"因版权无法下载",请尝试【迅雷5】
上传的附件:
最新回复 (0)
返回
本站所有资源均收集自互联网,没有提供影片资源存储, 也未参与录制、上传,若本站收录的资源无意侵犯了您的权益, 请联系邮箱:gogoimgs#gmail.com(#[email protected])