[2020] [其他] [喜剧] [WEB-1080P] 食肉动物 The.Predators.2020.ITALIAN.1080p.AMZN.WEBRip.DDP2.0.x264-PAAI 4.55GB

uump4 23天前 251

帖子完整标题:食肉动物 The.Predators.2020.ITALIAN.1080p.AMZN.WEBRip.DDP2.0.x264-PAAI 4.55GB

悠悠MP4_MP4电影下载_食肉动物 The.Predators.2020.ITALIAN.1080p.AMZN.WEBRip.DDP2.0.x264-PAAI 4.55GB

◎译  名 食肉动物/The Predators
◎片  名 I predatori
◎年  代 2020
◎产  地 意大利
◎类  别 喜剧
◎语  言 意大利语
◎上映日期 2020(意大利) / 2020-09-11(威尼斯电影节)
◎IMDb评分 5.7/10 from 474 users
◎IMDb链接 https://www.imdb.com/title/tt10948820/
◎豆瓣评分 /10 from 0 users
◎豆瓣链接 https://movie.douban.com/subject/34982753/
◎片  长 109分钟
◎导  演 彼得洛·卡斯特里图 Pietro Castellitto
◎编  剧 彼得洛·卡斯特里图 Pietro Castellitto
◎主  演 维尼乔·马尔基奥尼 Vinicio Marchioni
      安妮塔·卡皮奥尼 Anita Caprioli

◎标  签 意大利 | 2020威尼斯电影节 | 2020 | 意大利电影 | 剧情 | 群戏 | 电影 | 家庭

◎简  介

  This is the story of two households that are complete opposites: the Pavone and Vismara families. One bourgeois and intellectual and the other proletarian and Fascist, these apparently contrary family units share the same jungle: Rome. A trivial accident will bring these two poles together. And the madness of a 25-year-old youth will set them on a collision course, discovering the cards to reveal that everyone has a secret and no one is what he or she seems to be – and that we are all predators.

◎获奖情况

  第77届威尼斯电影节 ?(2020)
  地平线单元奖最佳影片(提名) 彼得洛·卡斯特里图
  地平线单元奖最佳剧本 彼得洛·卡斯特里图
  
  第66届意大利大卫奖 ?(2021)
  最佳新导演(提名) 彼得洛·卡斯特里图
  最佳原创剧本(提名)
  最佳制片人(提名)
  最佳音乐(提名)

Video
ID : 1
Format : AVC
Format/Info : Advanced Video Codec
Format profile : [email protected]
Format settings : CABAC / 4 Ref Frames
Format settings, CABAC : Yes
Format settings, Reference frames : 4 frames
Codec ID : V_MPEG4/ISO/AVC
Duration : 1 h 49 min
Bit rate mode : Constant
Bit rate : 5 747 kb/s
Nominal bit rate : 10 000 kb/s
Width : 1 920 pixels
Height : 800 pixels
Display aspect ratio : 2.40:1
Frame rate mode : Constant
Frame rate : 24.000 FPS
Color space : YUV
Chroma subsampling : 4:2:0
Bit depth : 8 bits
Scan type : Progressive
Bits/(Pixel*Frame) : 0.156
Stream size : 4.38 GiB (96%)
Default : Yes
Forced : No
Color range : Limited
Color primaries : BT.709
Transfer characteristics : BT.709
Matrix coefficients : BT.709

Audio
ID : 2
Format : E-AC-3
Format/Info : Enhanced AC-3
Commercial name : Dolby Digital Plus
Codec ID : A_EAC3
Duration : 1 h 49 min
Bit rate mode : Constant
Bit rate : 224 kb/s
Channel(s) : 2 channels
Channel layout : L R
Sampling rate : 48.0 kHz
Frame rate : 31.250 FPS (1536 SPF)
Compression mode : Lossy
Stream size : 175 MiB (4%)
Language : Italian
Service kind : Complete Main
Default : Yes
Forced : No

Text
ID : 3
Format : UTF-8
Codec ID : S_TEXT/UTF8
Codec ID/Info : UTF-8 Plain Text
Duration : 1 h 44 min
Bit rate : 55 b/s
Count of elements : 1273
Stream size : 42.9 KiB (0%)
Language : English
Default : No
Forced : No

悠悠MP4_MP4电影下载_食肉动物 The.Predators.2020.ITALIAN.1080p.AMZN.WEBRip.DDP2.0.x264-PAAI 4.55GB悠悠MP4_MP4电影下载_食肉动物 The.Predators.2020.ITALIAN.1080p.AMZN.WEBRip.DDP2.0.x264-PAAI 4.55GB悠悠MP4_MP4电影下载_食肉动物 The.Predators.2020.ITALIAN.1080p.AMZN.WEBRip.DDP2.0.x264-PAAI 4.55GB


提示:如迅雷下载提示"任务出错"、"因版权无法下载",请尝试【迅雷5】
上传的附件:
最新回复 (0)
返回
本站所有资源均收集自互联网,没有提供影片资源存储, 也未参与录制、上传,若本站收录的资源无意侵犯了您的权益, 请联系邮箱:gogoimgs#gmail.com(#[email protected])