[2020] [其他] [剧情] [WEB-1080P] 承诺 The.Stonebreaker.2020.ITALIAN.1080p.AMZN.WEBRip.DDP2.0.x264-PAAI 6.45GB

uump4 23天前 165

帖子完整标题:承诺 The.Stonebreaker.2020.ITALIAN.1080p.AMZN.WEBRip.DDP2.0.x264-PAAI 6.45GB

悠悠MP4_MP4电影下载_承诺 The.Stonebreaker.2020.ITALIAN.1080p.AMZN.WEBRip.DDP2.0.x264-PAAI 6.45GB

◎译  名 承诺/The Stonebreaker/采石工人
◎片  名 Spaccapietre
◎年  代 2020
◎产  地 意大利,法国,比利时
◎类  别 剧情
◎语  言 意大利语
◎上映日期 2020-09-03(威尼斯电影节)
◎IMDb评分  6.1/10 from 92 users
◎IMDb链接  https://www.imdb.com/title/tt11187986/
◎豆瓣评分 5.9/10 from 101 users
◎豆瓣链接 https://movie.douban.com/subject/34964137/
◎片  长 104分钟
◎导  演 吉安卢卡·德塞里奥 Gianluca De Serio / 马西米利亚诺·德塞里奥 Massimiliano De Serio
◎编  剧 吉安卢卡·德塞里奥 Gianluca De Serio / 马西米利亚诺·德塞里奥 Massimiliano De Serio
◎主  演 萨尔瓦托雷·埃斯波西托 Salvatore Esposito

◎标  签 意大利 | 2020 | 剧情 | 法国 | #PYIFF# | 劳权影像合辑 | 社会 | 威尼斯

◎简  介

  在意大利南部炽热的阳光下,安吉拉在田地里工作,她饱受剥削。有一天,她再也没有回家。这场悲剧和神秘的失踪,迫使她的丈夫朱塞佩,带着小儿子安托一起出发去寻找她,两人开始了一场没有回程的寻求真相之旅。

◎获奖情况

  第77届威尼斯电影节 ?(2020)
  欧洲电影联盟奖威尼斯日最佳影片(提名) 马西米利亚诺·德塞里奥?/?吉安卢卡·德塞里奥
  
  第4届平遥国际电影展 ?(2020)
  卧虎单元最受欢迎影片(提名) 马西米利亚诺·德塞里奥?/?吉安卢卡·德塞里奥

Video
ID                                       : 1
Format                                   : AVC
Format/Info                              : Advanced Video Codec
Format profile                           : [email protected]
Format settings                          : CABAC / 4 Ref Frames
Format settings, CABAC                   : Yes
Format settings, Reference frames        : 4 frames
Codec ID                                 : V_MPEG4/ISO/AVC
Duration                                 : 1 h 44 min
Bit rate mode                            : Constant
Bit rate                                 : 8 577 kb/s
Nominal bit rate                         : 10 000 kb/s
Width                                    : 1 920 pixels
Height                                   : 1 080 pixels
Display aspect ratio                     : 16:9
Frame rate mode                          : Constant
Frame rate                               : 24.000 FPS
Color space                              : YUV
Chroma subsampling                       : 4:2:0
Bit depth                                : 8 bits
Scan type                                : Progressive
Bits/(Pixel*Frame)                       : 0.172
Stream size                              : 6.28 GiB (97%)
Default                                  : Yes
Forced                                   : No
Color range                              : Limited
Color primaries                          : BT.709
Transfer characteristics                 : BT.709
Matrix coefficients                      : BT.709

Audio
ID                                       : 2
Format                                   : E-AC-3
Format/Info                              : Enhanced AC-3
Commercial name                          : Dolby Digital Plus
Codec ID                                 : A_EAC3
Duration                                 : 1 h 44 min
Bit rate mode                            : Constant
Bit rate                                 : 224 kb/s
Channel(s)                               : 2 channels
Channel layout                           : L R
Sampling rate                            : 48.0 kHz
Frame rate                               : 31.250 FPS (1536 SPF)
Compression mode                         : Lossy
Stream size                              : 168 MiB (3%)
Language                                 : Italian
Service kind                             : Complete Main
Default                                  : Yes
Forced                                   : No

Text
ID                                       : 3
Format                                   : UTF-8
Codec ID                                 : S_TEXT/UTF8
Codec ID/Info                            : UTF-8 Plain Text
Duration                                 : 1 h 37 min
Bit rate                                 : 14 b/s
Count of elements                        : 435
Stream size                              : 10.2 KiB (0%)
Language                                 : English
Default                                  : No
Forced                                   : No


悠悠MP4_MP4电影下载_承诺 The.Stonebreaker.2020.ITALIAN.1080p.AMZN.WEBRip.DDP2.0.x264-PAAI 6.45GB悠悠MP4_MP4电影下载_承诺 The.Stonebreaker.2020.ITALIAN.1080p.AMZN.WEBRip.DDP2.0.x264-PAAI 6.45GB


提示:如迅雷下载提示"任务出错"、"因版权无法下载",请尝试【迅雷5】
上传的附件:
最新回复 (0)
返回
本站所有资源均收集自互联网,没有提供影片资源存储, 也未参与录制、上传,若本站收录的资源无意侵犯了您的权益, 请联系邮箱:gogoimgs#gmail.com(#[email protected])