[更早] [欧美] [其他] [WEB-1080P] 鳄鱼男孩阿洛 Arlo.the.Alligator.Boy.2021.1080p.NF.WEBRip.DDP5.1.Atmos.x264-MRCS 4.11GB

uump4 23天前 113

帖子完整标题:鳄鱼男孩阿洛 Arlo.the.Alligator.Boy.2021.1080p.NF.WEBRip.DDP5.1.Atmos.x264-MRCS 4.11GB

悠悠MP4_MP4电影下载_鳄鱼男孩阿洛 Arlo.the.Alligator.Boy.2021.1080p.NF.WEBRip.DDP5.1.Atmos.x264-MRCS 4.11GB

◎译  名 鳄鱼男孩阿洛
◎片  名 Arlo the Alligator Boy
◎年  代 2021
◎产  地 美国
◎类  别 动画
◎语  言 英语
◎上映日期 2021-04-16(美国)
◎IMDb链接 https://www.imdb.com/title/tt13454122/
◎豆瓣评分 /10 from 0 users
◎豆瓣链接 https://movie.douban.com/subject/35316757/

◎简  介

  A young humanoid alligator travels to the big city in hopes of reuniting with his estranged father, meeting a colorful cast of characters along the way.

Video
ID : 1
Format : AVC
Format/Info : Advanced Video Codec
Format profile : [email protected]
Format settings : CABAC / 3 Ref Frames
Format settings, CABAC : Yes
Format settings, Reference frames : 3 frames
Codec ID : V_MPEG4/ISO/AVC
Duration : 1 h 32 min
Bit rate mode : Variable
Bit rate : 5 800 kb/s
Maximum bit rate : 8 700 kb/s
Width : 1 920 pixels
Height : 1 080 pixels
Display aspect ratio : 16:9
Frame rate mode : Constant
Frame rate : 24.000 FPS
Color space : YUV
Chroma subsampling : 4:2:0
Bit depth : 8 bits
Scan type : Progressive
Bits/(Pixel*Frame) : 0.117
Stream size : 3.60 GiB (88%)
Writing library : x264 core 148 r2722 1b0121b
Encoding settings : cabac=1 / ref=3 / deblock=1:0:0 / analyse=0x1:0x111 / me=umh / subme=10 / psy=1 / psy_rd=1.00:0.00 / mixed_ref=1 / me_range=24 / chroma_me=1 / trellis=2 / 8x8dct=0 / cqm=0 / deadzone=21,11 / fast_pskip=1 / chroma_qp_offset=-2 / threads=8 / lookahead_threads=1 / sliced_threads=0 / nr=0 / decimate=1 / interlaced=0 / bluray_compat=0 / stitchable=1 / constrained_intra=0 / bframes=2 / b_pyramid=0 / b_adapt=2 / b_bias=0 / direct=3 / weightb=1 / open_gop=0 / weightp=2 / keyint=250 / keyint_min=24 / scenecut=0 / intra_refresh=0 / rc_lookahead=48 / rc=2pass / mbtree=1 / bitrate=5800 / ratetol=1.0 / qcomp=0.50 / qpmin=6 / qpmax=51 / qpstep=4 / cplxblur=20.0 / qblur=0.5 / vbv_maxrate=8700 / vbv_bufsize=11600 / nal_hrd=vbr / filler=0 / ip_ratio=1.40 / aq=1:1.00
Default : Yes
Forced : No

Audio
ID : 2
Format : E-AC-3 JOC
Format/Info : Enhanced AC-3 with Joint Object Coding
Commercial name : Dolby Digital Plus with Dolby Atmos
Codec ID : A_EAC3
Duration : 1 h 32 min
Bit rate mode : Constant
Bit rate : 768 kb/s
Channel(s) : 6 channels
Channel layout : L R C LFE Ls Rs
Sampling rate : 48.0 kHz
Frame rate : 31.250 FPS (1536 SPF)
Compression mode : Lossy
Stream size : 508 MiB (12%)
Language : English
Service kind : Complete Main
Default : Yes
Forced : No
Complexity index : 16
Number of dynamic objects : 15
Bed channel count : 1 channel
Bed channel configuration : LFE

Text #1
ID : 3
Format : UTF-8
Codec ID : S_TEXT/UTF8
Codec ID/Info : UTF-8 Plain Text
Duration : 1 h 29 min
Bit rate : 89 b/s
Count of elements : 1898
Stream size : 58.7 KiB (0%)
Title : English (SDH)
Language : English
Default : No
Forced : No

Text #2
ID : 4
Format : UTF-8
Codec ID : S_TEXT/UTF8
Codec ID/Info : UTF-8 Plain Text
Duration : 1 h 28 min
Bit rate : 95 b/s
Count of elements : 1310
Stream size : 61.5 KiB (0%)
Title : ???????
Language : Arabic
Default : No
Forced : No

Text #3
ID : 5
Format : UTF-8
Codec ID : S_TEXT/UTF8
Codec ID/Info : UTF-8 Plain Text
Duration : 1 h 29 min
Bit rate : 58 b/s
Count of elements : 1308
Stream size : 38.7 KiB (0%)
Title : ?e?tina
Language : Czech
Default : No
Forced : No

Text #4
ID : 6
Format : UTF-8
Codec ID : S_TEXT/UTF8
Codec ID/Info : UTF-8 Plain Text
Duration : 1 h 29 min
Bit rate : 55 b/s
Count of elements : 1192
Stream size : 36.3 KiB (0%)
Title : Dansk
Language : Danish
Default : No
Forced : No

Text #5
ID : 7
Format : UTF-8
Codec ID : S_TEXT/UTF8
Codec ID/Info : UTF-8 Plain Text
Duration : 1 h 29 min
Bit rate : 60 b/s
Count of elements : 1209
Stream size : 39.6 KiB (0%)
Title : Deutsch
Language : German
Default : No
Forced : No

Text #6
ID : 8
Format : UTF-8
Codec ID : S_TEXT/UTF8
Codec ID/Info : UTF-8 Plain Text
Duration : 1 h 29 min
Bit rate : 96 b/s
Count of elements : 1320
Stream size : 63.3 KiB (0%)
Title : Ελληνικ?
Language : Greek
Default : No
Forced : No

Text #7
ID : 9
Format : UTF-8
Codec ID : S_TEXT/UTF8
Codec ID/Info : UTF-8 Plain Text
Duration : 1 h 29 min
Bit rate : 56 b/s
Count of elements : 1293
Stream size : 37.5 KiB (0%)
Title : Espa?ol
Language : Spanish
Default : No
Forced : No

Text #8
ID : 10
Format : UTF-8
Codec ID : S_TEXT/UTF8
Codec ID/Info : UTF-8 Plain Text
Duration : 1 h 29 min
Bit rate : 56 b/s
Count of elements : 1277
Stream size : 36.9 KiB (0%)
Title : Espa?ol
Language : Spanish
Default : No
Forced : No

Text #9
ID : 11
Format : UTF-8
Codec ID : S_TEXT/UTF8
Codec ID/Info : UTF-8 Plain Text
Duration : 1 h 29 min
Bit rate : 56 b/s
Count of elements : 1311
Stream size : 37.0 KiB (0%)
Title : Suomi
Language : Finnish
Default : No
Forced : No

Text #10
ID : 12
Format : UTF-8
Codec ID : S_TEXT/UTF8
Codec ID/Info : UTF-8 Plain Text
Duration : 1 h 29 min
Bit rate : 58 b/s
Count of elements : 1233
Stream size : 38.5 KiB (0%)
Title : Fran?ais
Language : French
Default : No
Forced : No

Text #11
ID : 13
Format : UTF-8
Codec ID : S_TEXT/UTF8
Codec ID/Info : UTF-8 Plain Text
Duration : 1 h 29 min
Bit rate : 93 b/s
Count of elements : 1314
Stream size : 61.4 KiB (0%)
Title : ?????
Language : Hebrew
Default : No
Forced : No

Text #12
ID : 14
Format : UTF-8
Codec ID : S_TEXT/UTF8
Codec ID/Info : UTF-8 Plain Text
Duration : 1 h 29 min
Bit rate : 54 b/s
Count of elements : 1307
Stream size : 35.5 KiB (0%)
Title : Hrvatski
Language : Croatian
Default : No
Forced : No

Text #13
ID : 15
Format : UTF-8
Codec ID : S_TEXT/UTF8
Codec ID/Info : UTF-8 Plain Text
Duration : 1 h 28 min
Bit rate : 58 b/s
Count of elements : 1297
Stream size : 37.8 KiB (0%)
Title : Magyar
Language : Hungarian
Default : No
Forced : No

Text #14
ID : 16
Format : UTF-8
Codec ID : S_TEXT/UTF8
Codec ID/Info : UTF-8 Plain Text
Duration : 1 h 29 min
Bit rate : 60 b/s
Count of elements : 1322
Stream size : 40.0 KiB (0%)
Title : Bahasa Indonesia
Language : Indonesian
Default : No
Forced : No

Text #15
ID : 17
Format : UTF-8
Codec ID : S_TEXT/UTF8
Codec ID/Info : UTF-8 Plain Text
Duration : 1 h 29 min
Bit rate : 56 b/s
Count of elements : 1289
Stream size : 37.0 KiB (0%)
Title : Italiano
Language : Italian
Default : No
Forced : No

Text #16
ID : 18
Format : UTF-8
Codec ID : S_TEXT/UTF8
Codec ID/Info : UTF-8 Plain Text
Duration : 1 h 29 min
Bit rate : 57 b/s
Count of elements : 1320
Stream size : 38.1 KiB (0%)
Title : 日本語
Language : Japanese
Default : No
Forced : No

Text #17
ID : 19
Format : UTF-8
Codec ID : S_TEXT/UTF8
Codec ID/Info : UTF-8 Plain Text
Duration : 1 h 29 min
Bit rate : 71 b/s
Count of elements : 1321
Stream size : 46.9 KiB (0%)
Title : ???
Language : Korean
Default : No
Forced : No

Text #18
ID : 20
Format : UTF-8
Codec ID : S_TEXT/UTF8
Codec ID/Info : UTF-8 Plain Text
Duration : 1 h 29 min
Bit rate : 55 b/s
Count of elements : 1305
Stream size : 36.3 KiB (0%)
Title : Bahasa Malaysia
Language : Malay
Default : No
Forced : No

Text #19
ID : 21
Format : UTF-8
Codec ID : S_TEXT/UTF8
Codec ID/Info : UTF-8 Plain Text
Duration : 1 h 29 min
Bit rate : 57 b/s
Count of elements : 1320
Stream size : 37.7 KiB (0%)
Title : Norsk Bokm?l
Language : Norwegian Bokmal
Default : No
Forced : No

Text #20
ID : 22
Format : UTF-8
Codec ID : S_TEXT/UTF8
Codec ID/Info : UTF-8 Plain Text
Duration : 1 h 29 min
Bit rate : 58 b/s
Count of elements : 1211
Stream size : 38.7 KiB (0%)
Title : Nederlands
Language : Dutch
Default : No
Forced : No

Text #21
ID : 23
Format : UTF-8
Codec ID : S_TEXT/UTF8
Codec ID/Info : UTF-8 Plain Text
Duration : 1 h 29 min
Bit rate : 55 b/s
Count of elements : 1152
Stream size : 36.6 KiB (0%)
Title : Polski
Language : Polish
Default : No
Forced : No

Text #22
ID : 24
Format : UTF-8
Codec ID : S_TEXT/UTF8
Codec ID/Info : UTF-8 Plain Text
Duration : 1 h 28 min
Bit rate : 58 b/s
Count of elements : 1292
Stream size : 38.0 KiB (0%)
Title : Português
Language : Portuguese
Default : No
Forced : No

Text #23
ID : 25
Format : UTF-8
Codec ID : S_TEXT/UTF8
Codec ID/Info : UTF-8 Plain Text
Duration : 1 h 28 min
Bit rate : 56 b/s
Count of elements : 1270
Stream size : 36.8 KiB (0%)
Title : Português (Brasil)
Language : Portuguese
Default : No
Forced : No

Text #24
ID : 26
Format : UTF-8
Codec ID : S_TEXT/UTF8
Codec ID/Info : UTF-8 Plain Text
Duration : 1 h 29 min
Bit rate : 65 b/s
Count of elements : 1273
Stream size : 43.0 KiB (0%)
Title : Roman?
Language : Romanian
Default : No
Forced : No

Text #25
ID : 27
Format : UTF-8
Codec ID : S_TEXT/UTF8
Codec ID/Info : UTF-8 Plain Text
Duration : 1 h 29 min
Bit rate : 93 b/s
Count of elements : 1308
Stream size : 61.3 KiB (0%)
Title : Русский
Language : Russian
Default : No
Forced : No

Text #26
ID : 28
Format : UTF-8
Codec ID : S_TEXT/UTF8
Codec ID/Info : UTF-8 Plain Text
Duration : 1 h 29 min
Bit rate : 60 b/s
Count of elements : 1221
Stream size : 39.5 KiB (0%)
Title : Svenska
Language : Swedish
Default : No
Forced : No

Text #27
ID : 29
Format : UTF-8
Codec ID : S_TEXT/UTF8
Codec ID/Info : UTF-8 Plain Text
Duration : 1 h 29 min
Bit rate : 59 b/s
Count of elements : 1015
Stream size : 39.0 KiB (0%)
Title : Türk?e
Language : Turkish
Default : No
Forced : No

Text #28
ID : 30
Format : UTF-8
Codec ID : S_TEXT/UTF8
Codec ID/Info : UTF-8 Plain Text
Duration : 1 h 29 min
Bit rate : 94 b/s
Count of elements : 1326
Stream size : 61.9 KiB (0%)
Title : Укра?нська
Language : Ukrainian
Default : No
Forced : No

Text #29
ID : 31
Format : UTF-8
Codec ID : S_TEXT/UTF8
Codec ID/Info : UTF-8 Plain Text
Duration : 1 h 29 min
Bit rate : 85 b/s
Count of elements : 1297
Stream size : 56.1 KiB (0%)
Title : Ti?ng Vi?t
Language : Vietnamese
Default : No
Forced : No

Text #30
ID : 32
Format : UTF-8
Codec ID : S_TEXT/UTF8
Codec ID/Info : UTF-8 Plain Text
Duration : 1 h 29 min
Bit rate : 64 b/s
Count of elements : 1301
Stream size : 42.4 KiB (0%)
Title : 中文(简体)
Language : Chinese
Default : No
Forced : No

Text #31
ID : 33
Format : UTF-8
Codec ID : S_TEXT/UTF8
Codec ID/Info : UTF-8 Plain Text
Duration : 1 h 29 min
Bit rate : 65 b/s
Count of elements : 1432
Stream size : 42.9 KiB (0%)
Title : 中文(繁體)
Language : Chinese
Default : No
Forced : No

悠悠MP4_MP4电影下载_鳄鱼男孩阿洛 Arlo.the.Alligator.Boy.2021.1080p.NF.WEBRip.DDP5.1.Atmos.x264-MRCS 4.11GB悠悠MP4_MP4电影下载_鳄鱼男孩阿洛 Arlo.the.Alligator.Boy.2021.1080p.NF.WEBRip.DDP5.1.Atmos.x264-MRCS 4.11GB悠悠MP4_MP4电影下载_鳄鱼男孩阿洛 Arlo.the.Alligator.Boy.2021.1080p.NF.WEBRip.DDP5.1.Atmos.x264-MRCS 4.11GB


提示:如迅雷下载提示"任务出错"、"因版权无法下载",请尝试【迅雷5】
上传的附件:
最新回复 (0)
返回
本站所有资源均收集自互联网,没有提供影片资源存储, 也未参与录制、上传,若本站收录的资源无意侵犯了您的权益, 请联系邮箱:gogoimgs#gmail.com(#[email protected])