[更早] [欧美] [喜剧] [BD-4K] 太空炮弹/宇宙奇航 Spaceballs.1987.2160p.UHD.BluRay.x265.10bit.HDR.DTS-HD.MA.5.1-B0MBARDi

uump4 23天前 179

帖子完整标题:太空炮弹/宇宙奇航 Spaceballs.1987.2160p.UHD.BluRay.x265.10bit.HDR.DTS-HD.MA.5.1-B0MBARDiERS 30.77GB

悠悠MP4_MP4电影下载_太空炮弹/宇宙奇航 Spaceballs.1987.2160p.UHD.BluRay.x265.10bit.HDR.DTS-HD.MA.5.1-B0MBARDi

◎译  名 太空炮弹/宇宙奇航/星战外传之白痴星球/星战歪传之太空炮弹
◎片  名 Spaceballs
◎年  代 1987
◎产  地 美国
◎类  别 喜剧 / 科幻 / 冒险
◎语  言 英语
◎上映日期 1987-06-24
◎IMDb评分  7.1/10 from 173449 users
◎IMDb链接  https://www.imdb.com/title/tt0094012/
◎豆瓣评分 6.8/10 from 983 users
◎豆瓣链接 https://movie.douban.com/subject/1296158/
◎片  长 96 分钟
◎导  演 梅尔·布鲁克斯 Mel Brooks
◎编  剧 梅尔·布鲁克斯 Mel Brooks / 托马斯·米汉 Thomas Meehan
◎主  演 梅尔·布鲁克斯 Mel Brooks
       约翰·坎迪 John Candy
       里克·莫拉尼斯 Rick Moranis
       比尔·普尔曼 Bill Pullman
       达芙妮·祖尼加 Daphne Zuniga
       鲁迪·德卢卡 Rudy De Luca
       托马斯·米汉 Thomas Meehan

◎标  签 喜剧 | 科幻 | 美国 | 恶搞 | 1987 | 美国电影 | MelBrooks | 1980s

◎简  介

  在很久以前的遥远星系中,“炮弹一族”因其领袖的愚蠢,耗尽了自己星球的大气,于是计划夺取邻近的朱迪亚星球的纯净空气。在朱迪亚星球维斯帕公主(达芙妮?祖尼加 Daphne Zuniga 饰)婚礼前夕,炮弹族总统斯古(梅尔?布鲁克斯 Mel Brooks 饰)派出黑帽子大人率领巨型战舰绑架维斯帕,以威胁朱迪亚方面就范。维斯帕拒绝没有爱情的婚姻选择逃婚,却陷入了炮弹族巨舰的追击,这时,因为欠高利贷在太空中奔逃的太空牛仔“孤星”(比尔?普尔曼 Bill Pullman 饰)与半人半狗的搭档巴夫受朱迪亚国王所托,出面将维斯帕救走。炮弹族岂肯善罢甘休,正邪势力在太空上演了又一场激战……

Video
ID                                       : 1
Format                                   : HEVC
Format/Info                              : High Efficiency Video Coding
Format profile                           : Main [email protected]@High
HDR format                               : SMPTE ST 2086, HDR10 compatible
Codec ID                                 : V_MPEGH/ISO/HEVC
Duration                                 : 1 h 36 min
Bit rate                                 : 41.9 Mb/s
Width                                    : 3 840 pixels
Height                                   : 2 076 pixels
Display aspect ratio                     : 1.85:1
Frame rate mode                          : Constant
Frame rate                               : 23.976 (24000/1001/189150) FPS
Color space                              : YUV
Chroma subsampling                       : 4:2:0 (Type 2)
Bit depth                                : 10 bits
Bits/(Pixel*Frame)                       : 0.219
Stream size                              : 28.1 GiB (91%)
Writing library                          : x265 3.557e817329:[Windows][GCC 10.2.1][64 bit] 10bit
Encoding settings                        : cpuid=1176575 / frame-threads=6 / numa-pools=36 / wpp / no-pmode / no-pme / no-psnr / no-ssim / log-level=2 / input-csp=1 / input-res=3840x2076 / interlace=0 / total-frames=138404 / level-idc=51 / high-tier=1 / uhd-bd=0 / ref=4 / no-allow-non-conformance / repeat-headers / annexb / aud / hrd / info / hash=0 / no-temporal-layers / open-gop / min-keyint=23 / keyint=250 / gop-lookahead=0 / bframes=4 / b-adapt=2 / b-pyramid / bframe-bias=0 / rc-lookahead=25 / lookahead-slices=4 / scenecut=40 / hist-scenecut=0 / radl=0 / no-splice / no-intra-refresh / ctu=64 / min-cu-size=8 / rect / no-amp / max-tu-size=32 / tu-inter-depth=1 / tu-intra-depth=1 / limit-tu=0 / rdoq-level=2 / dynamic-rd=0.00 / no-ssim-rd / signhide / no-tskip / nr-intra=0 / nr-inter=0 / no-constrained-intra / strong-intra-smoothing / max-merge=3 / limit-refs=3 / limit-modes / me=3 / subme=3 / merange=57 / temporal-mvp / no-frame-dup / no-hme / weightp / no-weightb / no-analyze-src-pics / deblock=-3:-3 / no-sao / no-sao-non-deblock / rd=4 / selective-sao=0 / no-early-skip / rskip / no-fast-intra / no-tskip-fast / no-cu-lossless / no-b-intra / no-splitrd-skip / rdpenalty=0 / psy-rd=2.00 / psy-rdoq=1.00 / no-rd-refine / no-lossless / cbqpoffs=0 / crqpoffs=0 / rc=crf / crf=18.0 / qcomp=0.60 / qpstep=4 / stats-write=0 / stats-read=0 / vbv-maxrate=160000 / vbv-bufsize=160000 / vbv-init=0.9 / min-vbv-fullness=50.0 / max-vbv-fullness=80.0 / crf-max=0.0 / crf-min=0.0 / ipratio=1.40 / pbratio=1.30 / aq-mode=2 / aq-strength=1.00 / cutree / zone-count=0 / no-strict-cbr / qg-size=32 / no-rc-grain / qpmax=69 / qpmin=0 / no-const-vbv / sar=1 / overscan=0 / videoformat=5 / range=0 / colorprim=9 / transfer=16 / colormatrix=9 / chromaloc=1 / chromaloc-top=2 / chromaloc-bottom=2 / display-window=0 / master-display=G(13250,34500)B(7500,3000)R(34000,16000)WP(15635,16450)L(40000000,50) / cll=9972,589 / min-luma=0 / max-luma=1023 / log2-max-poc-lsb=8 / vui-timing-info / vui-hrd-info / slices=1 / no-opt-qp-pps / no-opt-ref-list-length-pps / no-multi-pass-opt-rps / scenecut-bias=0.05 / hist-threshold=0.03 / no-opt-cu-delta-qp / no-aq-motion / hdr10 / hdr10-opt / no-dhdr10-opt / no-idr-recovery-sei / analysis-reuse-level=0 / analysis-save-reuse-level=0 / analysis-load-reuse-level=0 / scale-factor=0 / refine-intra=0 / refine-inter=0 / refine-mv=1 / refine-ctu-distortion=0 / no-limit-sao / ctu-info=0 / no-lowpass-dct / refine-analysis-type=0 / copy-pic=1 / max-ausize-factor=1.0 / no-dynamic-refine / no-single-sei / no-hevc-aq / no-svt / no-field / qp-adaptation-range=1.00 / scenecut-aware-qp=0conformance-window-offsets / right=0 / bottom=0 / decoder-max-rate=0 / no-vbv-live-multi-pass
Default                                  : Yes
Forced                                   : No
Color range                              : Limited
Color primaries                          : BT.2020
Transfer characteristics                 : PQ
Matrix coefficients                      : BT.2020 non-constant
Mastering display color primaries        : Display P3
Mastering display luminance              : min: 0.0050 cd/m2, max: 4000 cd/m2
Maximum Content Light Level              : 9972 cd/m2
Maximum Frame-Average Light Level        : 589 cd/m2

Audio #1
ID                                       : 2
Format                                   : DTS XLL
Format/Info                              : Digital Theater Systems
Commercial name                          : DTS-HD Master Audio
Codec ID                                 : A_DTS
Duration                                 : 1 h 36 min
Bit rate mode                            : Variable
Bit rate                                 : 3 814 kb/s
Channel(s)                               : 6 channels
Channel layout                           : C L R Ls Rs LFE
Sampling rate                            : 48.0 kHz
Frame rate                               : 93.750 FPS (512 SPF)
Bit depth                                : 24 bits
Compression mode                         : Lossless
Stream size                              : 2.56 GiB (8%)
Language                                 : English
Default                                  : Yes
Forced                                   : No

Audio #2
ID                                       : 3
Format                                   : AAC LC
Format/Info                              : Advanced Audio Codec Low Complexity
Codec ID                                 : A_AAC-2
Duration                                 : 1 h 36 min
Bit rate                                 : 88.9 kb/s
Channel(s)                               : 2 channels
Channel layout                           : L R
Sampling rate                            : 48.0 kHz
Frame rate                               : 46.875 FPS (1024 SPF)
Compression mode                         : Lossy
Delay relative to video                  : 9 ms
Stream size                              : 61.2 MiB (0%)
Title                                    : Commentary
Language                                 : English
Default                                  : No
Forced                                   : No

Text
ID                                       : 4
Format                                   : PGS
Muxing mode                              : zlib
Codec ID                                 : S_HDMV/PGS
Codec ID/Info                            : Picture based subtitle format used on BDs/HD-DVDs
Duration                                 : 1 h 26 min
Bit rate                                 : 37.2 kb/s
Count of elements                        : 2336
Stream size                              : 23.1 MiB (0%)
Title                                    : English
Language                                 : English
Default                                  : No
Forced                                   : No

Menu
00:00:00.000                             : Chapter 01
00:09:37.952                             : Chapter 02
00:18:24.353                             : Chapter 03
00:26:49.691                             : Chapter 04
00:34:55.343                             : Chapter 05
00:42:06.941                             : Chapter 06
00:50:55.344                             : Chapter 07
00:58:24.167                             : Chapter 08
01:08:50.209                             : Chapter 09
01:16:30.252                             : Chapter 10
01:24:29.356                             : Chapter 11
01:30:55.742                             : Chapter 12
01:36:11.599                             : Chapter 13





提示:如迅雷下载提示"任务出错"、"因版权无法下载",请尝试【迅雷5】
上传的附件:
最新回复 (0)
返回
本站所有资源均收集自互联网,没有提供影片资源存储, 也未参与录制、上传,若本站收录的资源无意侵犯了您的权益, 请联系邮箱:gogoimgs#gmail.com(#[email protected])