[2018] [韩国] [剧情] [纯净版] [现在去见你][BD-MKV/8.11GB][韩语/中英字][1080p][无水印]

uump4 23天前 538



压制片源:
Be with You 2018 BluRay 1080p AVC DTS-HD [email protected] 
感谢源发布者


源发布者制作说明:
原盘来源:MT。
字幕来源:精研,感谢所有素材提供者!
追加字幕,播放时调出。
DVDFab Player 5播放通过,其余未做测试。
转载请务必保留制作说明,并注明来源,谢谢!




悠悠MP4_MP4电影下载_[现在去见你][BD-MKV/8.11GB][韩语/中英字][1080p][无水印]

◎译  名 现在去见你 / Be with You / 借着雨点说爱你(港) / 现在,很想见你 / 雨你再次相遇(台)
◎片  名 지금 만나러 갑니다
◎年  代 2018
◎产  地 韩国
◎类  别 剧情 / 爱情 / 奇幻
◎语  言 韩语
◎上映日期 2018-03-14(韩国)
◎IMDb评分  7.7/10 from 3832 users
◎IMDb链接  https://www.imdb.com/title/tt8092252
◎豆瓣评分 8.3/10 from 88832 users
◎豆瓣链接 https://movie.douban.com/subject/27018285/
◎片  长 132分钟
◎导  演 李章焄 Jang-Hoon Lee
◎编  剧 李章焄 Jang-Hoon Lee / 姜秀贞 Soo-Jine Kang / 市川拓司 Takuji Ichikawa
◎主  演 苏志燮 Ji-seob So
       孙艺珍 Ye-jin Son
       金智焕 Ji-hwan Kim
       金贤秀 Hyun-su Kim
       李有镇 Lee You-jin
       高昌锡 Chang-Seok Ko
       李俊赫 Joon-Hyuk Lee
       孙云恩 Yeo-eun Sohn
       裴侑蓝 Bae Yoo-ram
       申禹熙 Sin Woo-hee 
       赵河硕 Ha-suk Jo
       郑西仁 Seo-In Jeong
       甘素贤 So-Hyun Gam
       朴叙俊 Seo-Joon Park
       韩在河 Jae-ha Han
       李胜浚 Seung joon Lee
       徐正妍 Seo Jung-yeon
       孔晓振 Hyo-jin Kong
       白贤宇 Hyung-woo Baek


◎标  签 爱情 | 韩国 | 温情 | 感人 | 治愈 | 亲情 | 奇幻 | 纯爱

◎简  介  

  本片根据市川拓司小说《相约在雨季》改编,讲述男子(苏志燮饰)的妻子秀雅(孙艺珍饰)去世前告诉他,自己将在下一个雨季回来。果不其然,雨季来临之际,妻子如约而至。可奇怪的是,妻子似乎忘记了他和家庭。影片预计明年上映。

◎获奖情况  

  第54届百想艺术大赏(2018)
  电影类 最佳女主角(提名) 孙艺珍

  第5届豆瓣电影年度榜单(2018)
  评分最高的韩国电影(提名)
  评分最高的爱情片(提名)

MediaInfo: H:\现在去见你.Be.with.You.2018.Bluray.1080p.x265.10bit.DDP.5.1.MNHD-FRDS\Be.with.You.2018.Bluray.1080p.x265.10bit.DDP.5.1.MNHD-FRDS.mkv

General
Unique ID                                : 188898992078632312707866963429476864999 (0x8E1C9F5E2F0C99530C617FB4136513E7)
Complete name                            : H:\现在去见你.Be.with.You.2018.Bluray.1080p.x265.10bit.DDP.5.1.MNHD-FRDS\Be.with.You.2018.Bluray.1080p.x265.10bit.DDP.5.1.MNHD-FRDS.mkv
Format                                   : Matroska
Format version                           : Version 4
File size                                : 8.11 GiB
Duration                                 : 2 h 12 min
Overall bit rate                         : 8 794 kb/s
Movie name                               : Be with You 2018 Bluray 1080p MNHD-FRDS
Encoded date                             : UTC 2021-04-12 16:46:52
Writing application                      : mkvmerge v55.0.0 ('Waiting For Space') 64-bit
Writing library                          : libebml v1.4.2 + libmatroska v1.6.4

Video
ID                                       : 1
Format                                   : HEVC
Format/Info                              : High Efficiency Video Coding
Format profile                           : Main [email protected]@High
Codec ID                                 : V_MPEGH/ISO/HEVC
Duration                                 : 2 h 12 min
Bit rate                                 : 7 670 kb/s
Width                                    : 1 920 pixels
Height                                   : 808 pixels
Display aspect ratio                     : 2.40:1
Frame rate mode                          : Constant
Frame rate                               : 23.976 (24000/1001/53320) FPS
Color space                              : YUV
Chroma subsampling                       : 4:2:0
Bit depth                                : 10 bits
Bits/(Pixel*Frame)                       : 0.206
Stream size                              : 7.08 GiB (87%)
Title                                    : [email protected]
Writing library                          : x265 3.557e817329:[Windows][MSVC 1928][64 bit] 10bit
Encoding settings                        : cpuid=533201111039 / frame-threads=3 / numa-pools=8 / wpp / pmode / no-pme / no-psnr / no-ssim / log-level=2 / input-csp=1 / input-res=1920x808 / interlace=0 / total-frames=190011 / level-idc=0 / high-tier=1 / uhd-bd=0 / ref=4 / no-allow-non-conformance / no-repeat-headers / annexb / no-aud / no-hrd / info / hash=0 / no-temporal-layers / no-open-gop / min-keyint=1 / keyint=250 / gop-lookahead=0 / bframes=6 / b-adapt=2 / b-pyramid / bframe-bias=0 / rc-lookahead=80 / lookahead-slices=0 / NTMzMjA=uuDQuD2mJt9fsCf / scenecut=40 / hist-scenecut=0 / radl=0 / no-splice / no-intra-refresh / ctu=32 / min-cu-size=8 / no-rect / no-amp / max-tu-size=32 / tu-inter-depth=4 / tu-intra-depth=4 / limit-tu=0 / rdoq-level=2 / dynamic-rd=0.00 / no-ssim-rd / signhide / no-tskip / nr-intra=0 / nr-inter=0 / no-constrained-intra / strong-intra-smoothing / max-merge=5 / limit-refs=0 / no-limit-modes / me=3 / subme=7 / merange=57 / temporal-mvp / no-frame-dup / no-hme / weightp / weightb / no-analyze-src-pics / deblock=-3:-3 / no-sao / no-sao-non-deblock / rd=4 / selective-sao=0 / no-early-skip / no-rskip / no-fast-intra / no-tskip-fast / no-cu-lossless / b-intra / no-splitrd-skip / rdpenalty=0 / psy-rd=1.50 / psy-rdoq=1.00 / no-rd-refine / no-lossless / cbqpoffs=-2 / crqpoffs=-2 / rc=crf / crf=19.0 / qcomp=0.65 / qpstep=4 / stats-write=0 / stats-read=0 / vbv-maxrate=160000 / vbv-bufsize=160000 / vbv-init=0.9 / min-vbv-fullness=50.0 / max-vbv-fullness=80.0 / crf-max=0.0 / crf-min=0.0 / ipratio=1.30 / pbratio=1.20 / aq-mode=1 / aq-strength=1.00 / no-cutree / zone-count=0 / no-strict-cbr / qg-size=8 / no-rc-grain / qpmax=69 / qpmin=0 / no-const-vbv / sar=0 / overscan=0 / videoformat=5 / range=0 / colorprim=1 / transfer=1 / colormatrix=1 / chromaloc=0 / display-window=0 / cll=0,0 / min-luma=0 / max-luma=1023 / log2-max-poc-lsb=8 / vui-timing-info / vui-hrd-info / slices=1 / no-opt-qp-pps / no-opt-ref-list-length-pps / no-multi-pass-opt-rps / scenecut-bias=0.05 / hist-threshold=0.03 / no-opt-cu-delta-qp / no-aq-motion / no-hdr10 / no-hdr10-opt / no-dhdr10-opt / no-idr-recovery-sei / analysis-reuse-level=0 / analysis-save-reuse-level=0 / analysis-load-reuse-level=0 / scale-factor=0 / refine-intra=0 / refine-inter=0 / refine-mv=1 / refine-ctu-distortion=0 / no-limit-sao / ctu-info=0 / no-lowpass-dct / refine-analysis-type=0 / copy-pic=1 / max-ausize-factor=1.0 / no-dynamic-refine / no-single-sei / no-hevc-aq / no-svt / no-field / qp-adaptation-range=1.00 / scenecut-aware-qp=0conformance-window-offsets / right=0 / bottom=0 / NTMzMjA= / decoder-max-rate=0 / no-vbv-live-multi-pass
Default                                  : Yes
Forced                                   : No
Color range                              : Limited
Color primaries                          : BT.709
Transfer characteristics                 : BT.709
Matrix coefficients                      : BT.709

Audio #1
ID                                       : 2
Format                                   : E-AC-3
Format/Info                              : Enhanced AC-3
Commercial name                          : Dolby Digital Plus
Codec ID                                 : A_EAC3
Duration                                 : 2 h 12 min
Bit rate mode                            : Constant
Bit rate                                 : 1 023 kb/s
Channel(s)                               : 6 channels
Channel layout                           : L R C LFE Ls Rs
Sampling rate                            : 48.0 kHz
Frame rate                               : 93.750 FPS (512 SPF)
Compression mode                         : Lossy
Stream size                              : 966 MiB (12%)
Language                                 : Korean
Service kind                             : Complete Main
Default                                  : Yes
Forced                                   : No

Audio #2
ID                                       : 3
Format                                   : Opus
Codec ID                                 : A_OPUS
Duration                                 : 2 h 12 min
Bit rate                                 : 52.3 kb/s
Channel(s)                               : 2 channels
Channel layout                           : L R
Sampling rate                            : 48.0 kHz
Frame rate                               : 50.000 FPS (960 SPF)
Compression mode                         : Lossy
Stream size                              : 49.4 MiB (1%)
Title                                    : Commentary by Director Jang-Hoon Lee and actor Ji-seob So, Ye-jin Son, Ji-hwan Kim
Writing library                          : opusenc from opus-tools 0.2-3-gf5f571b
Language                                 : Korean
Default                                  : No
Forced                                   : No
ENCODER_OPTIONS                          : --bitrate 64

Text #1
ID                                       : 4
ID in the original source medium         : 4608 (0x1200)
Format                                   : PGS
Muxing mode                              : zlib
Codec ID                                 : S_HDMV/PGS
Codec ID/Info                            : Picture based subtitle format used on BDs/HD-DVDs
Duration                                 : 2 h 7 min
Bit rate                                 : 21.1 kb/s
Count of elements                        : 2513
Stream size                              : 19.3 MiB (0%)
Title                                    : KOR
Language                                 : Korean
Default                                  : No
Forced                                   : No
Original source medium                   : Blu-ray

Text #2
ID                                       : 5
ID in the original source medium         : 4609 (0x1201)
Format                                   : PGS
Muxing mode                              : zlib
Codec ID                                 : S_HDMV/PGS
Codec ID/Info                            : Picture based subtitle format used on BDs/HD-DVDs
Duration                                 : 2 h 7 min
Bit rate                                 : 22.3 kb/s
Count of elements                        : 2575
Stream size                              : 20.4 MiB (0%)
Title                                    : ENG
Language                                 : English
Default                                  : No
Forced                                   : No
Original source medium                   : Blu-ray

Text #3
ID                                       : 6
ID in the original source medium         : 4610 (0x1202)
Format                                   : PGS
Muxing mode                              : zlib
Codec ID                                 : S_HDMV/PGS
Codec ID/Info                            : Picture based subtitle format used on BDs/HD-DVDs
Duration                                 : 2 h 7 min
Bit rate                                 : 21.9 kb/s
Count of elements                        : 2651
Stream size                              : 20.0 MiB (0%)
Title                                    : CHS
Language                                 : Chinese
Default                                  : Yes
Forced                                   : No
Original source medium                   : Blu-ray

Text #4
ID                                       : 7
ID in the original source medium         : 4611 (0x1203)
Format                                   : PGS
Muxing mode                              : zlib
Codec ID                                 : S_HDMV/PGS
Codec ID/Info                            : Picture based subtitle format used on BDs/HD-DVDs
Duration                                 : 2 h 7 min
Bit rate                                 : 22.6 kb/s
Count of elements                        : 2651
Stream size                              : 20.6 MiB (0%)
Title                                    : CHT
Language                                 : Chinese
Default                                  : No
Forced                                   : No
Original source medium                   : Blu-ray

Menu
00:00:00.000                             : en:Chapter 01
00:12:03.723                             : en:Chapter 02
00:21:50.892                             : en:Chapter 03
00:33:21.249                             : en:Chapter 04
00:45:56.462                             : en:Chapter 05
00:55:13.727                             : en:Chapter 06
01:04:31.784                             : en:Chapter 07
01:16:14.736                             : en:Chapter 08
01:25:31.709                             : en:Chapter 09
01:33:00.116                             : en:Chapter 10
01:44:12.621                             : en:Chapter 11
01:55:27.921                             : en:Chapter 12

GeneralVideo (1)Audio (2)Subtitles (4)
Container: Matroska
Runtime: 2 h 12 min
Size: 8.11 GiB
Codec: HEVC/Main [email protected]@High
Resolution: 1920x808
Color: YUV 4:2:0 10 bits
Frame rate: 23.976 fps
Bitrate: 7 670 kb/s
Size: 7.08 GiB (87%)
#1:Korean 6 channels, [email protected] 023 kb/s, 966 MiB (12%)
#2:Commentary by Director Jang-Hoon Lee and actor Ji-seob So, Ye-jin Son, Ji-hwan Kim 2 channels, [email protected] kb/s, 49.4 MiB (1%)
#1:KOR , [email protected] kb/s, 19.3 MiB (0%)
#2:ENG , [email protected] kb/s, 20.4 MiB (0%)
#3:CHS , [email protected] kb/s, 20.0 MiB (0%)
#4:CHT , [email protected] kb/s, 20.6 MiB (0%)


截图对比(点击空白处展开): Source,FRDS

悠悠MP4_MP4电影下载_[现在去见你][BD-MKV/8.11GB][韩语/中英字][1080p][无水印]悠悠MP4_MP4电影下载_[现在去见你][BD-MKV/8.11GB][韩语/中英字][1080p][无水印]
悠悠MP4_MP4电影下载_[现在去见你][BD-MKV/8.11GB][韩语/中英字][1080p][无水印]悠悠MP4_MP4电影下载_[现在去见你][BD-MKV/8.11GB][韩语/中英字][1080p][无水印]
悠悠MP4_MP4电影下载_[现在去见你][BD-MKV/8.11GB][韩语/中英字][1080p][无水印]悠悠MP4_MP4电影下载_[现在去见你][BD-MKV/8.11GB][韩语/中英字][1080p][无水印]
悠悠MP4_MP4电影下载_[现在去见你][BD-MKV/8.11GB][韩语/中英字][1080p][无水印]悠悠MP4_MP4电影下载_[现在去见你][BD-MKV/8.11GB][韩语/中英字][1080p][无水印]
悠悠MP4_MP4电影下载_[现在去见你][BD-MKV/8.11GB][韩语/中英字][1080p][无水印]悠悠MP4_MP4电影下载_[现在去见你][BD-MKV/8.11GB][韩语/中英字][1080p][无水印]
悠悠MP4_MP4电影下载_[现在去见你][BD-MKV/8.11GB][韩语/中英字][1080p][无水印]悠悠MP4_MP4电影下载_[现在去见你][BD-MKV/8.11GB][韩语/中英字][1080p][无水印]


提示:如迅雷下载提示"任务出错"、"因版权无法下载",请尝试【迅雷5】
上传的附件:
最新回复 (0)
返回
本站所有资源均收集自互联网,没有提供影片资源存储, 也未参与录制、上传,若本站收录的资源无意侵犯了您的权益, 请联系邮箱:gogoimgs#gmail.com(#[email protected])