[2020] [欧美] [剧情] [BD-4K] 米纳里 Minari.2020.KOREAN.ENSUBBED.2160p.AMZN.WEB-DL.x265.10bit.HDR10Plus.DDP5.1-SW

uump4 23天前 145

帖子完整标题:米纳里 Minari.2020.KOREAN.ENSUBBED.2160p.AMZN.WEB-DL.x265.10bit.HDR10Plus.DDP5.1-SWTYBLZ 12.47GB

悠悠MP4_MP4电影下载_米纳里 Minari.2020.KOREAN.ENSUBBED.2160p.AMZN.WEB-DL.x265.10bit.HDR10Plus.DDP5.1-SW

◎译  名 米纳里/???/农情家园(港)/梦想之地(台)/水芹菜
◎片  名 Minari
◎年  代 2020
◎产  地 美国
◎类  别 剧情
◎语  言 韩语,英语
◎上映日期 2020-01-26(圣丹斯电影节) / 2021-02-12(美国) / 2021-02-26(美国网络)
◎IMDb评分  7.6/10 from 28900 users
◎IMDb链接  https://www.imdb.com/title/tt10633456/
◎豆瓣评分 7.3/10 from 11201 users
◎豆瓣链接 https://movie.douban.com/subject/34463995/
◎片  长 115分钟
◎导  演 李·以萨克·郑 Lee Isaac Chung
◎编  剧 李·以萨克·郑 Lee Isaac Chung
◎主  演 史蒂文·元 Steven Yeun
       韩艺璃 Ye-ri Han
       达里尔·考克斯 Darryl Cox
       威尔·帕顿 Will Patton
       尹汝贞 Yeo-jeong Yoon
       蒂娜·帕克 Tina Parker
       斯科特·黑兹 Scott Haze
       艾伦·S·金 Alan S. Kim
       Laurie Cummings
       埃里克·斯达克 Eric Starkey
       诺尔·曹 Noel Cho
       伊瑟·文 Esther Moon

◎标  签 移民 | 韩国 | 美国 | 剧情 | 2020 | 种族 | 美国电影 | 圣丹斯电影节

◎简  介

  故事发生在20世纪80年代的美国,美籍韩裔男子雅各布(史蒂文·元 Steven Yeun 饰)带着妻子莫妮卡(韩艺璃 饰)和两个孩子大卫(Alan S. Kim 饰)、安妮(Noel Cho 饰)一起从熟悉的西海岸搬到了偏僻而又陌生的阿肯色州。虽然对于丈夫的这一决定,莫妮卡的心中十分的反对,但她拗不过雅各布的坚决和顽固,只得被迫夫唱妇随。
  
  蛮荒之地的生活既不舒适也不有趣,在最初的新鲜感过去之后,大卫和安妮很快就开始怀念起过去的生活了。之后,孩子们的外婆也来到了他们的身边,给这个家庭带来了一丝热闹的气息。雅各布没有发现的是,当他将越来越多的时间和精力投入到开发农场这件事情上时,他和妻子之间的距离就越来越远。

◎获奖情况

  第78届金球奖 ?(2021)
  电影类最佳外语片
  
  第74届英国电影学院奖 ?(2021)
  电影奖最佳导演(提名) 李·以萨克·郑
  电影奖最佳男配角(提名) 艾伦·S·金
  电影奖最佳女配角 尹汝贞
  电影奖最佳非英语片(提名)
  电影奖最佳原创配乐(提名)
  电影奖最佳选角(提名)
  
  第36届圣丹斯电影节 ?(2020)
  评审团大奖剧情片 李·以萨克·郑
  观众奖剧情片
  
  第73届美国导演工会奖 ?(2021)
  最佳电影导演(提名) 李·以萨克·郑
  
  第27届美国演员工会奖 ?(2021)
  电影奖最佳男主角(提名) 史蒂文·元
  电影奖最佳女配角 尹汝贞
  电影奖最佳群戏(提名)
  
  第32届美国制片人工会奖 ?(2021)
  最佳电影制片人奖(提名)
  
  第92届美国国家评论协会奖 ?(2020)
  最佳女配角 尹汝贞
  最佳原创剧本 李·以萨克·郑
  年度佳片
  
  第26届美国评论家选择电影奖 ?(2021)
  最佳影片(提名)
  最佳导演(提名) 李·以萨克·郑
  最佳男主角(提名) 史蒂文·元
  最佳女配角(提名) 尹汝贞
  最佳青少年演员 艾伦·S·金
  最佳群戏(提名)
  最佳外语片
  最佳原创剧本(提名) 李·以萨克·郑
  最佳摄影(提名) 拉克兰·米尔恩
  最佳配乐(提名) 埃米尔·莫塞利
  
  第30届哥谭独立电影奖 ?(2020)
  最佳女演员(提名) 尹汝贞
  
  第21届美国电影学会奖 ?(2020)
  年度佳片
  
  第25届金卫星奖 ?(2021)
  电影部门最佳剧情片(提名)
  电影部门最佳导演(提名) 李·以萨克·郑
  电影部门剧情片最佳男主角(提名) 史蒂文·元
  电影部门最佳女配角(提名) 尹汝贞
  电影部门最佳原创剧本(提名) 李·以萨克·郑
  电影部门最佳原创配乐(提名) 埃米尔·莫塞利
  电影部门最佳剪辑(提名) 哈里·尹
  
  第55届美国国家影评人协会奖 ?(2021)
  最佳女配角(提名) 尹汝贞
  
  第41届伦敦影评人协会奖 ?(2021)
  年度电影(提名)
  年度外语片(提名)
  
  第41届波士顿影评人协会奖 ?(2020)
  最佳女配角 尹汝贞
  最佳音乐 埃米尔·莫塞利
  最佳群像表演(提名)
  
  第46届洛杉矶影评人协会奖 ?(2020)
  最佳女配角 尹汝贞
  
  第33届芝加哥影评人协会奖 ?(2020)
  最佳男主角(提名) 史蒂文·元
  最佳女配角(提名) 尹汝贞
  最具突破导演(米洛斯·斯泰利克奖)(提名) 李·以萨克·郑
  
  第5届亚特兰大影评人协会奖 ?(2020)
  十佳影片
  最佳女配角(提名) 尹汝贞
  
  第24届美国在线影评人协会奖 ?(2021)
  最佳影片(提名)
  最佳男主角(提名) 史蒂文·元
  最佳女配角(提名) 尹汝贞
  最佳原创剧本(提名) 李·以萨克·郑
  最佳原创配乐(提名) 埃米尔·莫塞利
  最佳非英语片

Video
ID                                       : 1
Format                                   : HEVC
Format/Info                              : High Efficiency Video Coding
Format profile                           : Main [email protected]@Main
HDR format                               : SMPTE ST 2094 App 4, Version 1, HDR10+ Profile B compatible
Codec ID                                 : V_MPEGH/ISO/HEVC
Duration                                 : 1 h 55 min
Bit rate                                 : 14.9 Mb/s
Width                                    : 3 840 pixels
Height                                   : 1 600 pixels
Display aspect ratio                     : 2.40:1
Frame rate mode                          : Constant
Frame rate                               : 23.976 (24000/1001/189150) FPS
Color space                              : YUV
Chroma subsampling                       : 4:2:0
Bit depth                                : 10 bits
Bits/(Pixel*Frame)                       : 0.101
Stream size                              : 12.0 GiB (96%)
Default                                  : Yes
Forced                                   : No
Color range                              : Limited
Color primaries                          : BT.2020
Transfer characteristics                 : PQ
Matrix coefficients                      : BT.2020 non-constant
Mastering display color primaries        : Display P3
Mastering display luminance              : min: 0.0250 cd/m2, max: 20000 cd/m2
Maximum Content Light Level              : 2238 cd/m2
Maximum Frame-Average Light Level        : 236 cd/m2

Audio
ID                                       : 2
Format                                   : E-AC-3
Format/Info                              : Enhanced AC-3
Commercial name                          : Dolby Digital Plus
Codec ID                                 : A_EAC3
Duration                                 : 1 h 55 min
Bit rate mode                            : Constant
Bit rate                                 : 640 kb/s
Channel(s)                               : 6 channels
Channel layout                           : L R C LFE Ls Rs
Sampling rate                            : 48.0 kHz
Frame rate                               : 31.250 FPS (1536 SPF)
Compression mode                         : Lossy
Stream size                              : 527 MiB (4%)
Title                                    : DDP 5.1
Language                                 : Korean
Service kind                             : Complete Main
Default                                  : Yes
Forced                                   : No

Text
ID                                       : 3
Format                                   : UTF-8
Codec ID                                 : S_TEXT/UTF8
Codec ID/Info                            : UTF-8 Plain Text
Duration                                 : 1 h 54 min
Bit rate                                 : 26 b/s
Count of elements                        : 948
Stream size                              : 22.0 KiB (0%)
Title                                    : SDH
Language                                 : English
Default                                  : No
Forced                                   : No

Menu
00:00:00.000                             : Scene 1
00:00:08.000                             : Scene 2
00:00:35.000                             : Title Sequence
00:00:40.000                             : Scene 4
00:08:10.000                             : Scene 5
00:16:09.000                             : Scene 6
00:23:12.000                             : Scene 7
00:31:11.000                             : Scene 8
00:37:58.000                             : Scene 9
00:46:18.000                             : Scene 10
00:54:08.000                             : Scene 11
01:00:06.000                             : Scene 12
01:07:18.000                             : Scene 13
01:15:12.000                             : Scene 14
01:22:14.000                             : Scene 15
01:29:12.000                             : Scene 16
01:36:58.000                             : Scene 17
01:42:09.000                             : Scene 18
01:51:35.000                             : End Credits





提示:如迅雷下载提示"任务出错"、"因版权无法下载",请尝试【迅雷5】
上传的附件:
最新回复 (0)
返回
本站所有资源均收集自互联网,没有提供影片资源存储, 也未参与录制、上传,若本站收录的资源无意侵犯了您的权益, 请联系邮箱:gogoimgs#gmail.com(#[email protected])