[更早] [欧美] [剧情] [WEB-1080P] 新雾都孤儿/偷天行动 Twist.2021.1080p.WEB-DL.DD5.1.H264-FGT 3.12GB

uump4 23天前 365

帖子完整标题:新雾都孤儿/偷天行动 Twist.2021.1080p.WEB-DL.DD5.1.H264-FGT 3.12GB

悠悠MP4_MP4电影下载_新雾都孤儿/偷天行动 Twist.2021.1080p.WEB-DL.DD5.1.H264-FGT 3.12GB

◎译  名 新雾都孤儿/偷天行动(台)/雾都孤儿现代版
◎片  名 Twist
◎年  代 2021
◎产  地 英国
◎类  别 剧情 / 动作
◎语  言 英语
◎上映日期 2021-01-29(英国)
◎IMDb评分  4/10 from 1277 users
◎IMDb链接  https://www.imdb.com/title/tt10077034/
◎豆瓣评分 /10 from 0 users
◎豆瓣链接 https://movie.douban.com/subject/34859028/
◎导  演 马丁·欧文 Martin Owen
◎编  剧 萨莉·柯莱特 Sally Collett / 马修·帕克希尔 Matthew Parkhill / 约翰·拉萨尔 John Wrathall / 马丁·欧文 Martin Owen
◎主  演 拉夫·洛 Raff Law
       琳娜·海蒂 Lena Headey
       迈克尔·凯恩 Michael Caine
       诺埃尔·克拉克 Noel Clarke
       瑞塔·奥拉 Rita Ora
       索菲·西蒙特 Sophie Simnett
       大卫·威廉姆斯 David Walliams
       弗朗茨·德拉姆 Franz Drameh
       杰森·马扎 Jason Maza
       里克·沃登 Rick Warden
       塞缪尔·利基 Samuel Leakey
       萨莉·柯莱特 Sally Collett
       艾略特·詹姆斯·朗格里奇 Elliot James Langridge
       卡蒙提普·克里希·阿什顿 Kamontip Krissy Ashton
       伊恩·夏普 Ian Sharp
       斯图尔特·惠兰 Stuart Whelan
       阿里·库克 Ali Cook
       希滕·珀泰尔 Hiten Patel
       亚当·伯纳德 Adam J. Bernard
       泰·赫尔利 Ty Hurley
       阿图尔·夏尔马 Atul Sharma

◎标  签 英国电影 | 迈克尔·凯恩 | 英国 | 改编 | 动作 | 剧情 | 琳娜·海蒂 | 2021

◎简  介

  裘德·洛的儿子拉夫·洛、迈克尔·凯恩、“瑟曦”琳娜·海蒂、Rita Ora将主演新版《雾都孤儿》电影,该片名叫《Twist》(主角奥利弗的姓+“反转”之意),是狄更斯经典小说的现代、部分性转版,由Sky打造。
  
  洛饰演奥利弗,是一个当代伦敦的街头艺术家,他遇上了一群骗子,由富有魅力的Dodge(Ora饰演)领头,奥利弗因此卷入一起高风险的盗窃案,要为大盗Fagin(凯恩饰演)和他变态的生意伙伴Sikes(海蒂饰演)去偷一幅无价的画作。
  
  弗兰兹·德拉梅(《明日传奇》)、David Walliams(《小不列颠》)、Sophie Simnett(《破晓》)也出演,Martin Owen(《匿名杀手》)执导,John Wrathall(《碍事者》)编剧,今年秋天在伦敦开拍。

Video
ID                                       : 1
Format                                   : AVC
Format/Info                              : Advanced Video Codec
Format profile                           : [email protected]
Format settings                          : CABAC / 5 Ref Frames
Format settings, CABAC                   : Yes
Format settings, Reference frames        : 5 frames
Codec ID                                 : V_MPEG4/ISO/AVC
Duration                                 : 1 h 28 min
Bit rate                                 : 4 665 kb/s
Width                                    : 1 918 pixels
Height                                   : 800 pixels
Display aspect ratio                     : 2.40:1
Frame rate mode                          : Constant
Frame rate                               : 25.000 FPS
Color space                              : YUV
Chroma subsampling                       : 4:2:0
Bit depth                                : 8 bits
Scan type                                : Progressive
Bits/(Pixel*Frame)                       : 0.122
Stream size                              : 2.88 GiB (92%)
Language                                 : English
Default                                  : Yes
Forced                                   : No
Color range                              : Limited
Color primaries                          : BT.709
Transfer characteristics                 : BT.709
Matrix coefficients                      : BT.709

Audio
ID                                       : 2
Format                                   : AC-3
Format/Info                              : Audio Coding 3
Commercial name                          : Dolby Digital
Codec ID                                 : A_AC3
Duration                                 : 1 h 28 min
Bit rate mode                            : Constant
Bit rate                                 : 384 kb/s
Channel(s)                               : 6 channels
Channel layout                           : L R C LFE Ls Rs
Sampling rate                            : 48.0 kHz
Frame rate                               : 31.250 FPS (1536 SPF)
Compression mode                         : Lossy
Stream size                              : 243 MiB (8%)
Language                                 : English
Service kind                             : Complete Main
Default                                  : Yes
Forced                                   : No

Text
ID                                       : 3
Format                                   : UTF-8
Codec ID                                 : S_TEXT/UTF8
Codec ID/Info                            : UTF-8 Plain Text
Duration                                 : 1 h 22 min
Bit rate                                 : 65 b/s
Count of elements                        : 1326
Stream size                              : 39.3 KiB (0%)
Language                                 : English
Default                                  : Yes
Forced                                   : No


悠悠MP4_MP4电影下载_新雾都孤儿/偷天行动 Twist.2021.1080p.WEB-DL.DD5.1.H264-FGT 3.12GB悠悠MP4_MP4电影下载_新雾都孤儿/偷天行动 Twist.2021.1080p.WEB-DL.DD5.1.H264-FGT 3.12GB悠悠MP4_MP4电影下载_新雾都孤儿/偷天行动 Twist.2021.1080p.WEB-DL.DD5.1.H264-FGT 3.12GB


提示:如迅雷下载提示"任务出错"、"因版权无法下载",请尝试【迅雷5】
上传的附件:
最新回复 (0)
返回
本站所有资源均收集自互联网,没有提供影片资源存储, 也未参与录制、上传,若本站收录的资源无意侵犯了您的权益, 请联系邮箱:gogoimgs#gmail.com(#[email protected])