[2013] [其他] [剧情] [WEB-1080P] 扇尾鸽 Fantail.2013.1080p.WEB-DL.DD5.1.H264-FGT 2.41GB

uump4 8天前 118

帖子完整标题:扇尾鸽 Fantail.2013.1080p.WEB-DL.DD5.1.H264-FGT 2.41GB

悠悠MP4_MP4电影下载_扇尾鸽 Fantail.2013.1080p.WEB-DL.DD5.1.H264-FGT 2.41GB

◎译  名 扇尾鸽
◎片  名 Fantail
◎年  代 2013
◎产  地 新西兰
◎类  别 剧情 / 喜剧
◎语  言 英语
◎上映日期 2014-06-05(新西兰)
◎IMDb评分  7.1/10 from 138 users
◎IMDb链接  https://www.imdb.com/title/tt3074758/
◎豆瓣评分 /10 from 0 users
◎豆瓣链接 https://movie.douban.com/subject/25869566/
◎片  长 81分钟
◎导  演 柯蒂斯·沃威尔 Curtis Vowell
◎编  剧 苏菲·亨德森 Sophie Henderson
◎主  演 苏菲·亨德森 Sophie Henderson
       斯特芬·劳瓦特 Stephen Lovatt

◎标  签 新西兰 | 剧情 | 2013 | 电影院 | 人性 | 影展

◎简  介

  Tania thinks she's Maori. She works the graveyard shift at a petrol station, saving money so she can take her brother Piwakawaka to Surfers Paradise to find their dad. When Pi goes away to pick kiwifruit, Tania is left by herself to plan for their trip. Stuck in a petrol station - getting security training and making sure her boss, Rog, doesn't lose his job - Tania can't rescue her brother from his new mates and from thinking he can fly. Dean, the regional manager, arrives to keep an eye on Rog but Dean has his eye on Tania, too. When Dean questions Tania's culture and who her family is, she starts to piece together the truth and realises she must save her brother and bring him home. Then one night a cheeky little bird ruins everything and Tania pays the ultimate price for being a hero.

Video
ID                                       : 1
Format                                   : AVC
Format/Info                              : Advanced Video Codec
Format profile                           : [email protected]
Format settings                          : CABAC / 5 Ref Frames
Format settings, CABAC                   : Yes
Format settings, Reference frames        : 5 frames
Codec ID                                 : V_MPEG4/ISO/AVC
Duration                                 : 1 h 17 min
Bit rate                                 : 4 046 kb/s
Width                                    : 1 912 pixels
Height                                   : 812 pixels
Display aspect ratio                     : 2.35:1
Frame rate mode                          : Constant
Frame rate                               : 25.000 FPS
Color space                              : YUV
Chroma subsampling                       : 4:2:0
Bit depth                                : 8 bits
Scan type                                : Progressive
Bits/(Pixel*Frame)                       : 0.104
Stream size                              : 2.20 GiB (91%)
Language                                 : English
Default                                  : Yes
Forced                                   : No
Color range                              : Limited
Color primaries                          : BT.709
Transfer characteristics                 : BT.709
Matrix coefficients                      : BT.709

Audio
ID                                       : 2
Format                                   : AC-3
Format/Info                              : Audio Coding 3
Commercial name                          : Dolby Digital
Codec ID                                 : A_AC3
Duration                                 : 1 h 17 min
Bit rate mode                            : Constant
Bit rate                                 : 384 kb/s
Channel(s)                               : 6 channels
Channel layout                           : L R C LFE Ls Rs
Sampling rate                            : 48.0 kHz
Frame rate                               : 31.250 FPS (1536 SPF)
Compression mode                         : Lossy
Stream size                              : 214 MiB (9%)
Language                                 : English
Service kind                             : Complete Main
Default                                  : Yes
Forced                                   : No


悠悠MP4_MP4电影下载_扇尾鸽 Fantail.2013.1080p.WEB-DL.DD5.1.H264-FGT 2.41GB悠悠MP4_MP4电影下载_扇尾鸽 Fantail.2013.1080p.WEB-DL.DD5.1.H264-FGT 2.41GB悠悠MP4_MP4电影下载_扇尾鸽 Fantail.2013.1080p.WEB-DL.DD5.1.H264-FGT 2.41GB


提示:如迅雷下载提示"任务出错"、"因版权无法下载",请尝试【迅雷5】
上传的附件:
最新回复 (0)
返回
本站所有资源均收集自互联网,没有提供影片资源存储, 也未参与录制、上传,若本站收录的资源无意侵犯了您的权益, 请联系邮箱:gogoimgs#gmail.com(#[email protected])