[2016] [泰国] [喜剧] [WEB-1080P] 4G僧侣 Joking.Jazz.4G.2016.THAI.1080p.NF.WEBRip.DDP5.1.x264-HG 6.21GB

uump4 4月前 586

帖子完整标题:4G僧侣 Joking.Jazz.4G.2016.THAI.1080p.NF.WEBRip.DDP5.1.x264-HG 6.21GB

悠悠MP4_MP4电影下载_4G僧侣 Joking.Jazz.4G.2016.THAI.1080p.NF.WEBRip.DDP5.1.x264-HG 6.21GB

◎译  名 4G僧侣/Luang Pee Jazz 4G
◎片  名 ??????????? 4G
◎年  代 2016
◎产  地 泰国
◎类  别 喜剧
◎语  言 泰语
◎上映日期 2016-04-06(泰国)
◎IMDb评分  3.8/10 from 30 users
◎IMDb链接  https://www.imdb.com/title/tt6449704/
◎豆瓣评分 5.2/10 from 204 users
◎豆瓣链接 https://movie.douban.com/subject/26740139/
◎片  长 110分钟
◎导  演 普安农  Poj Arnon
◎主  演 尼克.坤纳提帕.平帕拉达布 Nick Kunatip Pinpradab
       娜帕帕·丹特拉库尔 Napapa Tantrakul
       苏达拉·布查蓬 Sudarat Butrprom
       李海海 Zee Pruk Panich

◎标  签 泰国 | 喜剧 | 搞笑 | 泰国电影 | 电影 | 2016 | 超搞笑 | 泰國

◎简  介

  2016年泰国票房冠军电影《4G僧侣》,泰国总票房1.5亿泰铢。由于Jazz喜当爹,两位假女朋友都说自己怀孕,被迫出家当和尚,谁知来到的这座寺庙居然有一宗不可告人的阴谋,一切都让这位Jazz僧侣来揭开……

Video
ID                                       : 1
Format                                   : AVC
Format/Info                              : Advanced Video Codec
Format profile                           : [email protected]
Format settings                          : CABAC / 3 Ref Frames
Format settings, CABAC                   : Yes
Format settings, Reference frames        : 3 frames
Format settings, GOP                     : M=3, N=50
Codec ID                                 : V_MPEG4/ISO/AVC
Duration                                 : 1 h 49 min
Bit rate mode                            : Variable
Bit rate                                 : 7 500 kb/s
Maximum bit rate                         : 11.2 Mb/s
Width                                    : 1 920 pixels
Height                                   : 1 080 pixels
Display aspect ratio                     : 16:9
Frame rate mode                          : Constant
Frame rate                               : 25.000 FPS
Color space                              : YUV
Chroma subsampling                       : 4:2:0
Bit depth                                : 8 bits
Scan type                                : Progressive
Bits/(Pixel*Frame)                       : 0.145
Stream size                              : 5.72 GiB (92%)
Writing library                          : x264 core 148 r2715 7e75228
Encoding settings                        : cabac=1 / ref=3 / deblock=1:0:0 / analyse=0x1:0x111 / me=umh / subme=10 / psy=1 / psy_rd=1.00:0.00 / mixed_ref=1 / me_range=24 / chroma_me=1 / trellis=2 / 8x8dct=0 / cqm=0 / deadzone=21,11 / fast_pskip=1 / chroma_qp_offset=-2 / threads=8 / lookahead_threads=1 / sliced_threads=0 / nr=0 / decimate=1 / interlaced=0 / bluray_compat=0 / stitchable=1 / constrained_intra=0 / bframes=2 / b_pyramid=0 / b_adapt=2 / b_bias=0 / direct=3 / weightb=1 / open_gop=0 / weightp=2 / keyint=50 / keyint_min=26 / scenecut=0 / intra_refresh=0 / rc_lookahead=50 / rc=2pass / mbtree=1 / bitrate=7500 / ratetol=1.0 / qcomp=0.50 / qpmin=6 / qpmax=51 / qpstep=4 / cplxblur=20.0 / qblur=0.5 / vbv_maxrate=11250 / vbv_bufsize=15000 / nal_hrd=vbr / filler=0 / ip_ratio=1.40 / aq=1:1.00
Language                                 : Thai
Default                                  : Yes
Forced                                   : No

Audio
ID                                       : 2
Format                                   : E-AC-3
Format/Info                              : Enhanced AC-3
Commercial name                          : Dolby Digital Plus
Codec ID                                 : A_EAC3
Duration                                 : 1 h 49 min
Bit rate mode                            : Constant
Bit rate                                 : 640 kb/s
Channel(s)                               : 6 channels
Channel layout                           : L R C LFE Ls Rs
Sampling rate                            : 48.0 kHz
Frame rate                               : 31.250 FPS (1536 SPF)
Compression mode                         : Lossy
Stream size                              : 500 MiB (8%)
Language                                 : Thai
Service kind                             : Complete Main
Default                                  : Yes
Forced                                   : No

Text #1
ID                                       : 3
Format                                   : UTF-8
Codec ID                                 : S_TEXT/UTF8
Codec ID/Info                            : UTF-8 Plain Text
Duration                                 : 1 h 48 min
Bit rate                                 : 64 b/s
Count of elements                        : 2060
Stream size                              : 51.1 KiB (0%)
Language                                 : English
Default                                  : Yes
Forced                                   : No

Text #2
ID                                       : 4
Format                                   : UTF-8
Codec ID                                 : S_TEXT/UTF8
Codec ID/Info                            : UTF-8 Plain Text
Duration                                 : 1 h 48 min
Bit rate                                 : 65 b/s
Count of elements                        : 2012
Stream size                              : 51.9 KiB (0%)
Language                                 : Indonesian
Default                                  : No
Forced                                   : No

Text #3
ID                                       : 5
Format                                   : UTF-8
Codec ID                                 : S_TEXT/UTF8
Codec ID/Info                            : UTF-8 Plain Text
Duration                                 : 1 h 48 min
Bit rate                                 : 157 b/s
Count of elements                        : 2042
Stream size                              : 126 KiB (0%)
Language                                 : Thai
Default                                  : No
Forced                                   : No

Text #4
ID                                       : 6
Format                                   : UTF-8
Codec ID                                 : S_TEXT/UTF8
Codec ID/Info                            : UTF-8 Plain Text
Duration                                 : 1 h 48 min
Bit rate                                 : 56 b/s
Count of elements                        : 2025
Stream size                              : 45.0 KiB (0%)
Language                                 : Chinese
Default                                  : No
Forced                                   : No

Text #5
ID                                       : 7
Format                                   : UTF-8
Codec ID                                 : S_TEXT/UTF8
Codec ID/Info                            : UTF-8 Plain Text
Duration                                 : 1 h 48 min
Bit rate                                 : 54 b/s
Count of elements                        : 2030
Stream size                              : 43.3 KiB (0%)
Language                                 : Chinese
Default                                  : No
Forced                                   : No


悠悠MP4_MP4电影下载_4G僧侣 Joking.Jazz.4G.2016.THAI.1080p.NF.WEBRip.DDP5.1.x264-HG 6.21GB悠悠MP4_MP4电影下载_4G僧侣 Joking.Jazz.4G.2016.THAI.1080p.NF.WEBRip.DDP5.1.x264-HG 6.21GB悠悠MP4_MP4电影下载_4G僧侣 Joking.Jazz.4G.2016.THAI.1080p.NF.WEBRip.DDP5.1.x264-HG 6.21GB


提示:如迅雷下载提示"任务出错"、"因版权无法下载",请尝试【迅雷5】
上传的附件:
最新回复 (0)
返回
本站所有资源均收集自互联网,没有提供影片资源存储, 也未参与录制、上传,若本站收录的资源无意侵犯了您的权益, 请联系邮箱:gogoimgs#gmail.com(#[email protected])