蹂躏 Swing.Low.2019.720p.BluRay.x264-GUACAMOLE 3.33GB

uump4 1月前 567

帖子完整标题:蹂躏 Swing.Low.2019.720p.BluRay.x264-GUACAMOLE 3.33GB

悠悠MP4_MP4电影下载_蹂躏 Swing.Low.2019.720p.BluRay.x264-GUACAMOLE 3.33GB

◎译  名 蹂躏/Swing Low
◎片  名 Ravage
◎年  代 2019
◎产  地 美国
◎类  别 惊悚
◎语  言 英语
◎上映日期 
◎IMDb评分 4.9/10 from 877 users
◎IMDb链接 https://www.imdb.com/title/tt8191620/
◎豆瓣评分 /10 from 0 users
◎豆瓣链接 https://movie.douban.com/subject/34839474/
◎片  长 84分钟
◎主  演 布鲁斯·邓恩 Bruce Dern
      安娜贝尔·德克斯特-琼斯 Annabelle Dexter-Jones
      埃里克·尼尔森 Eric Nelsen
      罗伯特·朗斯特里特 Robert Longstreet
      罗斯·帕特里奇 Ross Partridge
      迈克尔·韦弗 Michael Weaver

◎标  签 美国 | 惊悚 | 2019 | 犯罪 | 欧美小妞 | 性奴,反转 | 动作 | [歐美]

◎简  介

  When a nature photographer explains to the Police how she fought her way out of the Watchatoomy Valley, they dismiss her crazed and violent story as a meth-induced nightmare. But when they discover that she's telling the truth, it's too late.

Video
ID : 1
Format : AVC
Format/Info : Advanced Video Codec
Format profile : [email protected]
Format settings : CABAC / 8 Ref Frames
Format settings, CABAC : Yes
Format settings, Reference frames : 8 frames
Codec ID : V_MPEG4/ISO/AVC
Duration : 1 h 24 min
Bit rate : 5 011 kb/s
Width : 1 280 pixels
Height : 536 pixels
Display aspect ratio : 2.40:1
Frame rate mode : Constant
Frame rate : 23.976 (24000/1001/189150) FPS
Color space : YUV
Chroma subsampling : 4:2:0
Bit depth : 8 bits
Scan type : Progressive
Bits/(Pixel*Frame) : 0.305
Stream size : 2.94 GiB (89%)
Writing library : x264 core 161 r3048 b86ae3c
Encoding settings : cabac=1 / ref=8 / deblock=1:-3:-3 / analyse=0x3:0x133 / me=umh / subme=9 / psy=1 / psy_rd=1.00:0.00 / mixed_ref=1 / me_range=16 / chroma_me=1 / trellis=2 / 8x8dct=1 / cqm=0 / deadzone=21,11 / fast_pskip=0 / chroma_qp_offset=-2 / threads=17 / lookahead_threads=1 / sliced_threads=0 / nr=0 / decimate=1 / interlaced=0 / bluray_compat=0 / constrained_intra=0 / bframes=3 / b_pyramid=2 / b_adapt=2 / b_bias=0 / direct=3 / weightb=1 / open_gop=0 / weightp=2 / keyint=250 / keyint_min=23 / scenecut=40 / intra_refresh=0 / rc_lookahead=60 / rc=crf / mbtree=1 / crf=17.0 / qcomp=0.60 / qpmin=0 / qpmax=69 / qpstep=4 / ip_ratio=1.40 / aq=3:1.00
Default : Yes
Forced : No
Color range : Limited
Matrix coefficients : BT.709

Audio
ID : 2
Format : AC-3
Format/Info : Audio Coding 3
Commercial name : Dolby Digital
Codec ID : A_AC3
Duration : 1 h 24 min
Bit rate mode : Constant
Bit rate : 640 kb/s
Channel(s) : 6 channels
Channel layout : L R C LFE Ls Rs
Sampling rate : 48.0 kHz
Frame rate : 31.250 FPS (1536 SPF)
Compression mode : Lossy
Stream size : 385 MiB (11%)
Language : English
Service kind : Complete Main
Default : Yes
Forced : No

Text #1
ID : 3
Format : PGS
Muxing mode : zlib
Codec ID : S_HDMV/PGS
Codec ID/Info : Picture based subtitle format used on BDs/HD-DVDs
Duration : 1 h 18 min
Bit rate : 13.8 kb/s
Count of elements : 834
Stream size : 7.69 MiB (0%)
Title : Vobsubs
Language : German
Default : No
Forced : No

Text #2
ID : 4
Format : PGS
Muxing mode : zlib
Codec ID : S_HDMV/PGS
Codec ID/Info : Picture based subtitle format used on BDs/HD-DVDs
Duration : 9 min 29 s
Bit rate : 415 b/s
Count of elements : 7
Stream size : 28.9 KiB (0%)
Title : Forced
Language : German
Default : No
Forced : No

Menu
00:00:00.000 : en:00:00:00.000
00:08:22.293 : en:00:08:22.293
00:14:56.687 : en:00:14:56.687
00:24:21.543 : en:00:24:21.543
00:29:32.938 : en:00:29:32.938
00:37:04.222 : en:00:37:04.222
00:43:51.879 : en:00:43:51.879
00:49:50.779 : en:00:49:50.779
00:59:47.292 : en:00:59:47.292
01:03:14.624 : en:01:03:14.624
01:07:10.151 : en:01:07:10.151
01:20:45.883 : en:01:20:45.883

悠悠MP4_MP4电影下载_蹂躏 Swing.Low.2019.720p.BluRay.x264-GUACAMOLE 3.33GB


提示:如迅雷下载提示"任务出错"、"因版权无法下载",请尝试【迅雷5】
上传的附件:
最新回复 (0)
返回
本站所有资源均收集自互联网,没有提供影片资源存储, 也未参与录制、上传,若本站收录的资源无意侵犯了您的权益, 请联系邮箱:gogoimgs#gmail.com(#[email protected])